Подписывайся на наш канал в Telegram https://t.me/torrentok и получи доступ к торрентам без ограничений!
.
Авторизация | Регистрация
bitok.xyz
Торрент скачать бесплатно Мультфильмы торрент скачать Kimi no Na wa. | Your Name. | Твоё Имя. [2016, Movie] BDRip 1080p 10-bit raw+rus торрент скачать бесплатно


    Kimi no Na wa. | Your Name. | Твоё Имя. [2016, Movie] BDRip 1080p 10-bit raw+rus торрент скачать бесплатно

    Дата: 6-02-2020, 05:00 | .torrent скачали: 0

    Kimi no Na wa. | Your Name. | Твоё Имя. [2016, Movie] BDRip 1080p 10-bit raw+rusТип: Movie
    Жанр: Романтика, Драма
    Продолжительность: 1: 46: 35
    Дата выпуска: 03.07.2016
    Автор оригинала: Синкай Макото
    Режиссер: Синкай Макото
    Производство: CoMix Wave/ Япония

    World-Art |AniDB |MyAnimelist |Shikimori

    Описание

    Мицуха Миямидзу — обычная девушка, уставшая от жизни в провинции. Её отец, мэр города, ведёт избирательную кампанию, а в семейном синтоистском храме ей приходится прилюдно исполнять древние ритуалы. И она мечтает перебраться из тесного провинциального мирка в большой город.
    Таки Татибана — увлекающийся архитектурой старшеклассник, вынужденный работать на полставки, чтобы обеспечивать свою жизнь в Токио. Изнурённый темпом большого города, Татибана мечтает о беззаботной жизни где-нибудь в горах.
    Однажды герои обнаруживают, что между ними существует странная и необъяснимая связь. Во сне они меняются телами и проживают жизни друг друга. Но однажды эта способность исчезает так же внезапно, как появилась. Таки решает во что бы то ни стало отыскать Мицуху, но способны ли они узнать друг друга в реальной жизни?
    Автор: Gvendalin ©Shikimori
    Качество Видео: BDRip
    Видео: AVC/x264 , 1920x1080, 23.976 fps, 8 424 kb/s, 0.169 bpp10-bit
    Язык Озвучки: Японский и Русский
    Перевод: Двухголосый, Многоголосый закадровый, Дублированный
    Аудио №1: FLAC2.0 , 48.0 kHz, 466 kb/s 16-bit(LE-Production) |Язык:
    Аудио №2: FLAC2.0 , 48.0 kHz, 515 kb/s 16-bit(Shiza Project) |Язык:
    Аудио №3: AAC2.0 , 48.0 kHz, 512 kb/s(Мосфильм Мастер) |Язык:
    Аудио №4: FLAC2.0 , 48.0 kHz, 507 kb/s 16-bit(Timecraft) |Язык:
    Аудио №5: FLAC2.0 , 48.0 kHz, 686 kb/s 16-bit(DeadLine) |Язык:
    Аудио №6: FLAC2.0 , 48.0 kHz, 617 kb/s 16-bit(AniLibria) |Язык:
    Аудио №7: FLAC2.0 , 48.0 kHz, 714 kb/s 16-bit(AlexFilm) |Язык:
    Аудио №8: AAC2.0 , 48.0 kHz, 192 kb/s(Anything Group) |Язык:
    Аудио №9: AC32.0 , 48.0 kHz, 192 kb/s(STEPonee) |Язык:
    Аудио №10: DTS5.1 , 48.0 kHz, 3 594 kb/s 24-Bit(Original) |Язык:
    Субтитры: Русские
    Перевод 1: Надписи/Полные |Язык: (2nd Division) (Песнине переведены)
    Перевод 2: Надписи/Полные |Язык: (Acit Na Morte Vos) (Песни переведены)
    Перевод 3: Надписи/Полные |Язык: (Shimizu GMC) (Песни переведены)

    Скриншоты для ознакомления


    На скриншоте субтитры2nd Division . В двух других, таких надписей нет.



    General
    Unique ID : 62690405166641489268011128179168755130 (0x2F29BB9C4B7BFF82641A4CF86BA9BDBA)
    Complete name : J: АнимеТвоё Имя (Kimi no Na wa) BDRip (2016).mkv
    Format : Matroska
    Format version : Version 4
    File size : 12.2 GiB
    Duration : 1 h 46 min
    Overall bit rate mode : Variable
    Overall bit rate : 16.5 Mb/s
    Encoded date : UTC 2020-02-04 11: 47: 24
    Writing application : mkvmerge v43.0.0 (\'The Quartermaster\') 64-bit
    Writing library : libebml v1.3.10 + libmatroska v1.5.2
    Cover : Yes
    Attachments : cover.jpg/Eskal.ttf/Georgia.ttf/Gothic.TTF/LEngineer-Regular.otf/Myriad Pro Cond.ttf/pt-sans.ttf/pt-sansb.ttf/segoepr.ttf/segoeprb.ttf/segoeuisl.ttf/tahoma.ttf/tahomabd.ttf/BOOKOS.TTF/BOOKOSI.TTF/timesbd_0.ttf/timesbi_0.ttf/3940.ttf/Antikvar.ttf/OwnHand.ttf/times_0.ttf/ResavskaBGSansItalic.ttf/ResavskaBGSansRegular.ttf/Burlak.ttf/ResavskaBGSansBold.ttf/ResavskaBGSansBoldItalic.ttf/BOOKOSB.TTF/BOOKOSB0.TTF/BOOKOSB2.TTF/BOOKOSBI.TTF/Brush_m.ttf/BrushType-SemiBold Regular.Ttf/comic__2.ttf/DFPSNGyosho-W5-CP-Spec.ttf/DS Goose.ttf/hortens0.ttf/Modernist One.ttf/Moderno One.ttf/ObelixPro (Regular).ttf/OHCRBRG.TTF/palabi_0.ttf/Passing Notes.ttf/ROMIC.TTF/segoepr.ttf/segoepr0.ttf/segoeprb.ttf/segoesc.ttf/segoesc0.ttf/segoescb.ttf/SFORSONCASUALLIGHT.TTF/SitkaB.ttc/TECHD___.TTF/TkachenkoSketch4F-Regular.ttf/TrajanPro3-Regular.otf/v_10CentComics_v1.1.ttf/v_Augie_v1.03.ttf/v_AutoDestructBB_Reg_v1.0.ttf/v_BlambotFXProBB-Light_v1.01.ttf/v_CCBellyLaugh (Regular).ttf/v_CCCutthroatInt-Regular_v1.1.ttf/v_CCYadaYadaYadaInt-Regular_v1.ttf/v_RedSt0.3.t/1915.ttf/8435.ttf/8584.ttf/11719.ttf/2118554.ttf
    Video
    ID : 1
    Format : AVC
    Format/Info : Advanced Video Codec
    Format profile : High 10@L5
    Format settings : CABAC/4 Ref Frames
    Format settings, CABAC : Yes
    Format settings, Reference : 4 frames
    Codec ID : V_MPEG4/ISO/AVC
    Duration : 1 h 46 min
    Bit rate : 8 424 kb/s
    Width : 1 920 pixels
    Height : 1 080 pixels
    Display aspect ratio : 16: 9
    Frame rate mode : Constant
    Frame rate : 23.976 (24000/1001) FPS
    Color space : YUV
    Chroma subsampling : 4: 2: 0
    Bit depth : 10 bits
    Scan type : Progressive
    Bits/(Pixel*Frame) : 0.169
    Stream size : 6.27 GiB (51%)
    Writing library : x264 core 152 r2851M ba24899 (DJATOM\'s build)
    Encoding settings : cabac=1/ref=4/deblock=1: 1: -1/analyse=0x3: 0x113/me=umh/subme=9/psy=1/psy_rd=1.00: 0.00/mixed_ref=1/me_range=32/chroma_me=1/trellis=2/8x8dct=1/cqm=0/deadzone=21, 11/fast_pskip=1/chroma_qp_offset=-2/threads=34/lookahead_threads=5/sliced_threads=0/nr=0/decimate=1/interlaced=0/bluray_compat=0/constrained_intra=0/bframes=9/b_pyramid=2/b_adapt=2/b_bias=0/direct=1/weightb=1/open_gop=0/weightp=2/keyint=240/keyint_min=23/scenecut=40/intra_refresh=0/rc=crf/mbtree=0/crf=15.0000/qcomp=0.72/qpmin=0/qpmax=81/qpstep=4/ip_ratio=1.40/pb_ratio=1.30/aq=1: 0.85
    Language : Japanese
    Default : Yes
    Forced : No
    Color range : Limited
    Color primaries : BT.709
    Transfer characteristics : BT.709
    Matrix coefficients : BT.709
    Audio #1
    ID : 2
    Format : FLAC
    Format/Info : Free Lossless Audio Codec
    Codec ID : A_FLAC
    Duration : 1 h 46 min
    Bit rate mode : Variable
    Bit rate : 714 kb/s
    Channel(s) : 2 channels
    Channel layout : L R
    Sampling rate : 48.0 kHz
    Frame rate : 11.719 FPS (4096 SPF)
    Bit depth : 16 bits
    Compression mode : Lossless
    Stream size : 545 MiB (4%)
    Title : AlexFilm
    Writing library : libFLAC 1.3.2 (UTC 2017-01-01)
    Language : Russian
    Default : Yes
    Forced : Yes
    Audio #2
    ID : 3
    Format : AC-3
    Format/Info : Audio Coding 3
    Commercial name : Dolby Digital
    Codec ID : A_AC3
    Duration : 1 h 46 min
    Bit rate mode : Constant
    Bit rate : 192 kb/s
    Channel(s) : 2 channels
    Channel layout : L R
    Sampling rate : 48.0 kHz
    Frame rate : 31.250 FPS (1536 SPF)
    Compression mode : Lossy
    Stream size : 146 MiB (1%)
    Title : STEPonee
    Language : Russian
    Service kind : Complete Main
    Default : No
    Forced : No
    Audio #3
    ID : 4
    Format : FLAC
    Format/Info : Free Lossless Audio Codec
    Codec ID : A_FLAC
    Duration : 1 h 46 min
    Bit rate mode : Variable
    Bit rate : 617 kb/s
    Channel(s) : 2 channels
    Channel layout : L R
    Sampling rate : 48.0 kHz
    Frame rate : 11.719 FPS (4096 SPF)
    Bit depth : 16 bits
    Compression mode : Lossless
    Stream size : 470 MiB (4%)
    Title : AniLibria
    Writing library : libFLAC 20080709 (UTC 2008-07-09)
    Language : Russian
    Default : No
    Forced : Yes
    Audio #4
    ID : 5
    Format : AAC LC
    Format/Info : Advanced Audio Codec Low Complexity
    Codec ID : A_AAC-2
    Duration : 1 h 46 min
    Bit rate : 512 kb/s
    Channel(s) : 2 channels
    Channel layout : L R
    Sampling rate : 48.0 kHz
    Frame rate : 46.875 FPS (1024 SPF)
    Compression mode : Lossy
    Stream size : 391 MiB (3%)
    Title : Мосфильм Мастер
    Language : Russian
    Default : No
    Forced : No
    Audio #5
    ID : 6
    Format : FLAC
    Format/Info : Free Lossless Audio Codec
    Codec ID : A_FLAC
    Duration : 1 h 46 min
    Bit rate mode : Variable
    Bit rate : 466 kb/s
    Channel(s) : 2 channels
    Channel layout : L R
    Sampling rate : 48.0 kHz
    Frame rate : 11.719 FPS (4096 SPF)
    Bit depth : 16 bits
    Compression mode : Lossless
    Stream size : 355 MiB (3%)
    Title : LE-Production
    Writing library : libFLAC 1.3.2 (UTC 2017-01-01)
    Language : Russian
    Default : No
    Forced : No
    Audio #6
    ID : 7
    Format : FLAC
    Format/Info : Free Lossless Audio Codec
    Codec ID : A_FLAC
    Duration : 1 h 46 min
    Bit rate mode : Variable
    Bit rate : 507 kb/s
    Channel(s) : 2 channels
    Channel layout : L R
    Sampling rate : 48.0 kHz
    Frame rate : 11.719 FPS (4096 SPF)
    Bit depth : 16 bits
    Compression mode : Lossless
    Stream size : 387 MiB (3%)
    Title : Timecraft
    Writing library : libFLAC 1.3.2 (UTC 2017-01-01)
    Language : Russian
    Default : No
    Forced : No
    Audio #7
    ID : 8
    Format : FLAC
    Format/Info : Free Lossless Audio Codec
    Codec ID : A_FLAC
    Duration : 1 h 46 min
    Bit rate mode : Variable
    Bit rate : 686 kb/s
    Channel(s) : 2 channels
    Channel layout : L R
    Sampling rate : 48.0 kHz
    Frame rate : 11.719 FPS (4096 SPF)
    Bit depth : 16 bits
    Compression mode : Lossless
    Stream size : 523 MiB (4%)
    Title : DeadLine
    Writing library : libFLAC 1.3.2 (UTC 2017-01-01)
    Language : Russian
    Default : No
    Forced : No
    Audio #8
    ID : 9
    Format : FLAC
    Format/Info : Free Lossless Audio Codec
    Codec ID : A_FLAC
    Duration : 1 h 46 min
    Bit rate mode : Variable
    Bit rate : 515 kb/s
    Channel(s) : 2 channels
    Channel layout : L R
    Sampling rate : 48.0 kHz
    Frame rate : 11.719 FPS (4096 SPF)
    Bit depth : 16 bits
    Detected bit depth : 24 bits
    Compression mode : Lossless
    Stream size : 392 MiB (3%)
    Title : Shiza Project
    Writing library : libFLAC 1.3.2 (UTC 2017-01-01)
    Language : Russian
    Default : No
    Forced : No
    Audio #9
    ID : 10
    Format : AAC LC
    Format/Info : Advanced Audio Codec Low Complexity
    Codec ID : A_AAC-2
    Duration : 1 h 46 min
    Bit rate : 192 kb/s
    Channel(s) : 2 channels
    Channel layout : L R
    Sampling rate : 48.0 kHz
    Frame rate : 46.875 FPS (1024 SPF)
    Compression mode : Lossy
    Stream size : 148 MiB (1%)
    Title : Anything Group
    Language : Russian
    Default : No
    Forced : No
    Audio #10
    ID : 11
    Format : DTS XLL
    Format/Info : Digital Theater Systems
    Commercial name : DTS-HD Master Audio
    Codec ID : A_DTS
    Duration : 1 h 46 min
    Bit rate mode : Variable
    Bit rate : 3 594 kb/s
    Channel(s) : 6 channels
    Channel layout : C L R Ls Rs LFE
    Sampling rate : 48.0 kHz
    Frame rate : 93.750 FPS (512 SPF)
    Bit depth : 24 bits
    Compression mode : Lossless
    Stream size : 2.68 GiB (22%)
    Title : Original
    Language : Japanese
    Default : No
    Forced : No
    Text #1
    ID : 12
    Format : ASS
    Codec ID : S_TEXT/ASS
    Codec ID/Info : Advanced Sub Station Alpha
    Duration : 1 h 44 min
    Bit rate : 395 b/s
    Count of elements : 1644
    Compression mode : Lossless
    Stream size : 302 KiB (0%)
    Title : Forced (2nd Division)
    Language : Russian
    Default : Yes
    Forced : Yes
    Text #2
    ID : 13
    Format : ASS
    Codec ID : S_TEXT/ASS
    Codec ID/Info : Advanced Sub Station Alpha
    Duration : 1 h 45 min
    Bit rate : 500 b/s
    Count of elements : 2752
    Compression mode : Lossless
    Stream size : 387 KiB (0%)
    Title : Full (2nd Division)
    Language : Russian
    Default : No
    Forced : No
    Text #3
    ID : 14
    Format : ASS
    Codec ID : S_TEXT/ASS
    Codec ID/Info : Advanced Sub Station Alpha
    Duration : 1 h 44 min
    Bit rate : 29 b/s
    Count of elements : 198
    Compression mode : Lossless
    Stream size : 22.2 KiB (0%)
    Title : Forced (Acit Na Morte Vos)
    Language : Russian
    Default : No
    Forced : No
    Text #4
    ID : 15
    Format : ASS
    Codec ID : S_TEXT/ASS
    Codec ID/Info : Advanced Sub Station Alpha
    Duration : 1 h 46 min
    Bit rate : 150 b/s
    Count of elements : 1488
    Compression mode : Lossless
    Stream size : 117 KiB (0%)
    Title : Full (Acit Na Morte Vos)
    Language : Russian
    Default : No
    Forced : No
    Text #5
    ID : 16
    Format : ASS
    Codec ID : S_TEXT/ASS
    Codec ID/Info : Advanced Sub Station Alpha
    Duration : 1 h 46 min
    Bit rate : 99 b/s
    Count of elements : 449
    Compression mode : Lossless
    Stream size : 77.6 KiB (0%)
    Title : Forced (Shimizu GMC)
    Language : Russian
    Default : No
    Forced : No
    Text #6
    ID : 17
    Format : ASS
    Codec ID : S_TEXT/ASS
    Codec ID/Info : Advanced Sub Station Alpha
    Duration : 1 h 46 min
    Bit rate : 247 b/s
    Count of elements : 1950
    Compression mode : Lossless
    Stream size : 192 KiB (0%)
    Title : Full (Shimizu GMC)
    Language : Russian
    Default : No
    Forced : No
    Menu
    00: 00: 00.000 : en: 残響/Echo
    00: 01: 34.094 : en: オープニング/Opening
    00: 03: 21.868 : en: 端緒/Beginning
    00: 05: 13.271 : en: 宮水一家/Miyamizu Family
    00: 08: 37.308 : en: お前は誰だ?/Who Are You?
    00: 12: 11.314 : en: 組紐/Kumihimo
    00: 14: 32.371 : en: 口噛み酒/Kuchikamizake
    00: 17: 22.500 : en: 東京/Tokyo
    00: 22: 57.918 : en: 奥寺先輩/Okudera-senpai
    00: 27: 05.624 : en: 異変1/Accident 1
    00: 28: 16.570 : en: 異変2/Accident 2
    00: 29: 53.542 : en: 入れ替わりの日々/Day by Day
    00: 32: 42.836 : en: 御神体/Object of Worship
    00: 37: 26.995 : en: デート/Date
    00: 41: 57.765 : en: 秋祭り/Autumn Festival
    00: 44: 30.334 : en: 断絶/Disconnection
    00: 45: 54.001 : en: 探訪/Searching
    00: 48: 28.656 : en: 消えた糸守町/Itomori Town that Disappeared
    00: 53: 01.387 : en: 追求/Pursuit
    00: 56: 53.869 : en: 記憶/Recollection
    01: 03: 42.318 : en: 再演/Replay
    01: 06: 03.793 : en: 作戦会議/Strategy Meeting
    01: 09: 44.931 : en: 予感/Premonition
    01: 12: 41.816 : en: 邂逅/Chance Meeting
    01: 16: 42.473 : en: カタワレ時/Twilight
    01: 21: 21.710 : en: うつくしく, もがく/Beautiful, Struggling
    01: 29: 12.806 : en: 恋/Love
    01: 32: 51.858 : en: あと少しだけ/Just a Little Longer
    01: 37: 01.733 : en: 君の名は./Your Name.
    01: 41: 19.615 : en: スタッフ・クレジット/Staff Roll
    Время раздачи: С 8: 00 по 18: 00 МСК (до появления первых 3-5 скачавших)
    Понравился релиз? Ставь Оценку и нажми Спасибо
    Это серьёзно меня мотивирует делать подобные релизы.



    Онлайн видео Kimi no Na wa.


    Kimi no Na wa. | Your Name. | Твоё Имя. [2016, Movie] BDRip 1080p 10-bit raw+rus торрент скачать бесплатно
    Рейтинг →
     (голосов: 1, оценка 3/5, голосовать можно 1 раз )

    Другие торренты по теме:

  • Kimi no Suizou o Tabetai | Kimi no Suizou wo Tabetai | I Want to Eat Your Pancreas | Я хочу съесть твою поджелудочную [2018, Movie] BDRemux 1080p raw+rus
  • Kimi no Suizou wo Tabetai | Kimi no Suizou o Tabetai | I Want to Eat Your Pancreas | Я хочу съесть твою поджелудочную [2018, Movie] BDRip 1080p raw+rus
  • Shigatsu wa Kimi no Uso / Your Lie in April / Твоя апрельская ложь [2014, TV, 1 из >22] HDTV 720p Hi10p raw
  • Shigatsu wa Kimi no Uso / Your Lie in April / Твоя апрельская ложь [2014, TV, 1 из 22] WEBRip 720p Raw+Rus скачать через торрент бесплатно
  • Shigatsu wa Kimi no Uso / Your Lie in April / Твоя апрельская ложь [2014, TV, 1 из 22] BDrip 1080p Hi10p raw скачать через торрент бесплатно
  • Shigatsu wa Kimi no Uso / Your Lie in April / Твоя апрельская ложь [2014, TV, 22 ep] BDRip Hi10p 720p Raw+Rus x3(ext) скачать через торрент бесплатно
  • Kimi no Na wa. / Your Name (2016) [FLAC|Lossless|image+.cue] <OST>
  • Kimi no Na wa. / Your Name (2016) [FLAC|Lossless|WEB-24-48|hi-res tracks] <OST>


    • Комментарии (0):

      Информация

      Информация

        Посетители, находящиеся в группе Гости, не могут оставлять комментарии в данной новости.