Подписывайся на наш канал в Telegram https://t.me/torrentok и получи доступ к торрентам без ограничений!
.
Авторизация | Регистрация
bitok.xyz
Торрент скачать бесплатно Мультфильмы торрент скачать Маленькая мисс Дулиттл / Liliane Susewind - Ein tierisches Abenteuer (2018) WEB-DLRip торрент скачать бесплатно


    Маленькая мисс Дулиттл / Liliane Susewind - Ein tierisches Abenteuer (2018) WEB-DLRip торрент скачать бесплатно

    Дата: 7-02-2020, 05:00 | .torrent скачали: 0

    Маленькая мисс Дулиттл / Liliane Susewind - Ein tierisches Abenteuer (2018) WEB-DLRipПроизводство: Германия/Dreamtool Entertainment, Velvet Films
    Жанр: фэнтези, комедия, криминал, семейный
    Режиссер: Йоахим Масаннек

    Актеры
    Малу Ляйхер, Пери Баумайстер, Том Бек, Айлин Тецель, Мерет Беккер, Кристоф Мария Хербст, Арвед Бирнбаум, Даниэль Цильман, Аарон Кисёв, Йоран Ляйхер

    Описание

    Рыжеволосая Лилиан не просто обожает животных, но и умеет понимать их язык и отвечать им. О ее невероятной способности знают только члены семьи, и они всячески оберегают тайну. Но любым тайнам в свое время всегда приходит конец, особенно если на кону стоит спасение зоопарка.

    Возраст: 6+ (зрителям, достигшим 6 лет)
    Дата мировой премьеры: 10 мая 2018
    Дата российской премьеры: 16 января 2020
    Релиз от: ЭЛЕКТРИЧКА
    Продолжительность: 01: 39: 22
    Качество видео: WEB-DLRip
    Перевод: Дублированный (iTunes)
    Субтитры: Отсутствуют
    Видео: Xvid, 720x304, ~1585 Kbps
    Аудио: AC3, 6 ch, 384 Kbps - Русский
    General
    Complete name : H: ФильмыMalenkaja.miss.Dulittl.2018.D.HDRip.ELEKTRI4KA.avi
    Format : AVI
    Format/Info : Audio Video Interleave
    Format profile : OpenDML
    File size : 1.38 GiB
    Duration : 1 h 39 min
    Overall bit rate : 1 981 kb/s
    Movie name : SM_DOLITTLE_WEB-DL_1080p_BLUEBIRD
    Writing application : Lavf58.20.100
    Video
    ID : 0
    Format : MPEG-4 Visual
    Format profile : Advanced Simple@L5
    Format settings : BVOP1
    Format settings, BVOP : 1
    Format settings, QPel : No
    Format settings, GMC : No warppoints
    Format settings, Matrix : Default (H.263)
    Codec ID : XVID
    Codec ID/Hint : XviD
    Duration : 1 h 39 min
    Bit rate : 1 585 kb/s
    Width : 720 pixels
    Height : 304 pixels
    Display aspect ratio : 2.40: 1
    Frame rate : 24.000 FPS
    Color space : YUV
    Chroma subsampling : 4: 2: 0
    Bit depth : 8 bits
    Scan type : Progressive
    Compression mode : Lossy
    Bits/(Pixel*Frame) : 0.302
    Stream size : 1.10 GiB (80%)
    Title : SM_DOLITTLE_WEB-DL_1080p_BLUEBIRD
    Writing library : XviD 67
    Audio
    ID : 1
    Format : AC-3
    Format/Info : Audio Coding 3
    Commercial name : Dolby Digital
    Codec ID : 2000
    Duration : 1 h 39 min
    Bit rate mode : Constant
    Bit rate : 384 kb/s
    Channel(s) : 6 channels
    Channel layout : L R C LFE Ls Rs
    Sampling rate : 48.0 kHz
    Frame rate : 31.250 FPS (1536 SPF)
    Bit depth : 16 bits
    Compression mode : Lossy
    Stream size : 273 MiB (19%)
    Alignment : Aligned on interleaves
    Interleave, duration : 32 ms (0.77 video frame)
    Title : DUB DD 5.1 @ 384 kbps (iTunes)
    Service kind : Complete Main

    Скриншоты для ознакомления



    Все одноименные релизы в Клубе
    Время раздачи: с 07: 00 до 23: 00 МСК (до появления первых 3-5 скачавших)

    Онлайн видео Маленькая мисс Дулиттл


    Маленькая мисс Дулиттл / Liliane Susewind - Ein tierisches Abenteuer (2018) WEB-DLRip торрент скачать бесплатно
    Рейтинг →
     (голосов: 1, оценка 3/5, голосовать можно 1 раз )

    Другие торренты по теме:

  • Маленькая мисс Маркер / Little Miss Marker (1980) DVDRip [H.264]
  • Маленькая мисс Дулиттл / Liliane Susewind - Ein tierisches Abenteuer (2018) WEB-DL [H.264 / 1080-LQ]
  • Маленькая мисс Дулиттл / Liliane Susewind - Ein tierisches Abenteuer (2018) WEB-DLRip [H.265] [10-bit]
  • Маленькая мисс Дулиттл / Liliane Susewind - Ein tierisches Abenteuer (2018) BDRemux [H.264 / 1080i]


    • Комментарии (0):

      Информация

      Информация

        Посетители, находящиеся в группе Гости, не могут оставлять комментарии в данной новости.

        ↓ Меню




        Популярное

        Фиксики против Кработов (2019) WEB-DLRip

        (скачиваний: 134)
        Рик и Морти / Rick and Morty (2015) WEB-DL [H.264 / 1080p] (Сезон 2, серии 1-10 из 10) Сыендук [EN / RU Sub] скачать через торрент бесплатно

        (скачиваний: 109)
        М.Ю. Демидова | ЕГЭ-2020. Физика. 30 типовых вариантов (2020) [PDF]

        (скачиваний: 80)
        Малышарики (2015-2019) WEB-DL [H.264 / 1080p-LQ] (серии 1-154 из 208) [Обновляемая]

        (скачиваний: 68)
        Рик и Морти / Rick and Morty (2013) BDRip [H.264 / 720p-LQ] (сезон 1, серии 1-11 из 11) Сыендук

        (скачиваний: 65)
        Рик и Морти / Rick and Morty (2013) BDRip [H.264 / 1080p] (Сезон 1, серии 1-11 из 11) Сыендук [EN Sub] скачать через торрент бесплатно

        (скачиваний: 46)
        Фиксики против Кработов (2019) WEB-DL [H.264 / 1080p-LQ]

        (скачиваний: 32)
        Свинка Пеппа / Peppa Pig (2004-2012) SATRip (1-4 сезоны: 208 серий из 209) скачать через торрент бесплатно

        (скачиваний: 28)
        Рик и Морти / Rick and Morty (2017) WEBRip [H.264 / 720p-LQ] (Сезон 3, серии 1 из ) Сыендук

        (скачиваний: 26)
        Жила-была царевна (2015-2019) WEB-DLRip [H.264 / 720p-LQ] (сезон 1, серии 1-18 из 26) [Обновляемая]

        (скачиваний: 21)