Подписывайся на наш канал в Telegram https://t.me/torrentok и получи доступ к торрентам без ограничений!
.
Авторизация | Регистрация
bitok.xyz
Торрент скачать бесплатно Мультфильмы торрент скачать Маленькая мисс Дулиттл / Liliane Susewind - Ein tierisches Abenteuer (2018) WEB-DL [H.264 / 1080-LQ] торрент скачать бесплатно


    Маленькая мисс Дулиттл / Liliane Susewind - Ein tierisches Abenteuer (2018) WEB-DL [H.264 / 1080-LQ] торрент скачать бесплатно

    Дата: 7-02-2020, 05:00 | .torrent скачали: 0

    Маленькая мисс Дулиттл / Liliane Susewind - Ein tierisches Abenteuer (2018) WEB-DL [H.264 / 1080-LQ]Производство: Германия, Dreamtool Entertainment, Velvet Films
    Жанр: фэнтези, комедия, семейный
    Режиссер: Йоахим Масаннек

    Актеры
    Малу Ляйхер, Пери Баумайстер, Том Бек, Айлин Тецель, Мерет Беккер, Кристоф Мария Хербст, Арвед Бирнбаум, Даниэль Цильман, Аарон Кисёв, Йоран Ляйхер

    Описание

    Рыжеволосая Лилиан не просто обожает животных, но и умеет понимать их язык и отвечать им. О ее невероятной способности знают только члены семьи, и они всячески оберегают тайну. Но любым тайнам в свое время всегда приходит конец, особенно если на кону стоит спасение зоопарка.

    Возраст: 6+ (зрителям, достигшим 6 лет)
    Дата мировой премьеры: 10 мая 2018
    Дата российской премьеры: 16 января 2020, Кинологистика
    Релиз от: BLUEBIRD
    Продолжительность: 01: 39: 23
    Качество видео: WEB-DL
    Перевод: Дублированный (iTunes)
    Субтитры: отсутствуют
    Видео: H.264/AVC, 1920x804, ~4477 Kbps
    Аудио: AC-3, 6 ch, 384 Kbps русский (DUB iTunes)
    Общее
    Уникальный идентификатор : 214969296853136210183553527287335198545 (0xA1B994A1C3BEDAD886A57D226ED59F51)
    Полное имя : G: SM_DOLITTLE_WEB-DL_1080p_BLUEBIRD.mkv
    Формат : Matroska
    Версия формата : Version 4/Version 2
    Размер файла : 3, 44 Гбайт
    Продолжительность : 1 ч. 39 м.
    Общий поток : 4959 Кбит/сек
    Название фильма : SM_DOLITTLE_WEB-DL_1080p_BLUEBIRD
    Дата кодирования : UTC 2020-02-05 20: 33: 02
    Программа кодирования : mkvmerge v6.9.1 (\'Blue Panther\') 32bit built on Apr 18 2014 18: 15: 44
    Библиотека кодирования : libebml v1.3.0 + libmatroska v1.4.1
    Обложка : Yes
    Attachments : cover.png
    Видео
    Идентификатор : 1
    Формат : AVC
    Формат/Информация : Advanced Video Codec
    Профиль формата : High@L4
    Параметр CABAC формата : Да
    Параметр ReFrames формата : 5 кадров
    Параметр GOP формата : N=1
    Идентификатор кодека : V_MPEG4/ISO/AVC
    Продолжительность : 1 ч. 39 м.
    Битрейт : 4477 Кбит/сек
    Ширина : 1920 пикселей
    Высота : 804 пикселя
    Соотношение сторон : 2, 40: 1
    Режим частоты кадров : Постоянный
    Частота кадров : 24, 000 кадра/сек
    Цветовое пространство : YUV
    Субдискретизация насыщенности : 4: 2: 0
    Битовая глубина : 8 бит
    Тип развёртки : Прогрессивная
    Бит/(Пиксели*Кадры) : 0.121
    Размер потока : 3, 11 Гбайт (90%)
    Заголовок : SM_DOLITTLE_WEB-DL_1080p_BLUEBIRD
    Язык : English
    Default : Да
    Forced : Нет
    Цветовой диапазон : Limited
    Основные цвета : BT.709
    Характеристики трансфера : BT.709
    Коэффициенты матрицы : BT.709
    Аудио
    Идентификатор : 2
    Формат : AC-3
    Формат/Информация : Audio Coding 3
    Расширение режима : CM (complete main)
    Параметр Endianness формата : Big
    Идентификатор кодека : A_AC3
    Продолжительность : 1 ч. 39 м.
    Вид битрейта : Постоянный
    Битрейт : 384 Кбит/сек
    Каналы : 6 каналов
    Расположение каналов : Front: L C R, Side: L R, LFE
    Частота : 48, 0 КГц
    Частота кадров : 31, 250 кадров/сек (1536 spf)
    Битовая глубина : 16 бит
    Метод сжатия : С потерями
    Размер потока : 273 Мбайт (8%)
    Заголовок : DUB DD 5.1 @ 384 kbps (iTunes)
    Язык : Russian
    Default : Да
    Forced : Нет
    Меню
    00: 00: 00.000 : en: Глава 1
    00: 07: 06.791 : en: Глава 2
    00: 12: 19.874 : en: Глава 3
    00: 23: 12.957 : en: Глава 4
    00: 30: 05.207 : en: Глава 5
    00: 38: 42.915 : en: Глава 6
    00: 45: 40.415 : en: Глава 7
    00: 55: 10.790 : en: Глава 8
    01: 03: 24.790 : en: Глава 9
    01: 11: 21.373 : en: Глава 10
    01: 18: 47.164 : en: Глава 11
    01: 27: 48.039 : en: Глава 12

    Скриншоты для ознакомления





    Все одноименные релизы в Клубе
    Время раздачи: с 11: 00 до 01: 00 (до появления первых 3-5 скачавших)

    Онлайн видео Маленькая мисс Дулиттл


    Маленькая мисс Дулиттл / Liliane Susewind - Ein tierisches Abenteuer (2018) WEB-DL [H.264 / 1080-LQ] торрент скачать бесплатно
    Рейтинг →
     (голосов: 1, оценка 4/5, голосовать можно 1 раз )

    Другие торренты по теме:

  • Маленькая мисс Маркер / Little Miss Marker (1980) DVDRip [H.264]
  • Маленькая мисс Дулиттл / Liliane Susewind - Ein tierisches Abenteuer (2018) WEB-DLRip
  • Маленькая мисс Дулиттл / Liliane Susewind - Ein tierisches Abenteuer (2018) WEB-DLRip [H.265] [10-bit]
  • Маленькая мисс Дулиттл / Liliane Susewind - Ein tierisches Abenteuer (2018) BDRemux [H.264 / 1080i]


    • Комментарии (0):

      Информация

      Информация

        Посетители, находящиеся в группе Гости, не могут оставлять комментарии в данной новости.

        ↓ Меню




        Популярное

        Фиксики против Кработов (2019) WEB-DLRip

        (скачиваний: 134)
        Рик и Морти / Rick and Morty (2015) WEB-DL [H.264 / 1080p] (Сезон 2, серии 1-10 из 10) Сыендук [EN / RU Sub] скачать через торрент бесплатно

        (скачиваний: 109)
        М.Ю. Демидова | ЕГЭ-2020. Физика. 30 типовых вариантов (2020) [PDF]

        (скачиваний: 80)
        Малышарики (2015-2019) WEB-DL [H.264 / 1080p-LQ] (серии 1-154 из 208) [Обновляемая]

        (скачиваний: 68)
        Рик и Морти / Rick and Morty (2013) BDRip [H.264 / 720p-LQ] (сезон 1, серии 1-11 из 11) Сыендук

        (скачиваний: 65)
        Рик и Морти / Rick and Morty (2013) BDRip [H.264 / 1080p] (Сезон 1, серии 1-11 из 11) Сыендук [EN Sub] скачать через торрент бесплатно

        (скачиваний: 46)
        Фиксики против Кработов (2019) WEB-DL [H.264 / 1080p-LQ]

        (скачиваний: 32)
        Свинка Пеппа / Peppa Pig (2004-2012) SATRip (1-4 сезоны: 208 серий из 209) скачать через торрент бесплатно

        (скачиваний: 28)
        Рик и Морти / Rick and Morty (2017) WEBRip [H.264 / 720p-LQ] (Сезон 3, серии 1 из ) Сыендук

        (скачиваний: 26)
        Жила-была царевна (2015-2019) WEB-DLRip [H.264 / 720p-LQ] (сезон 1, серии 1-18 из 26) [Обновляемая]

        (скачиваний: 21)