Подписывайся на наш канал в Telegram https://t.me/torrentok и получи доступ к торрентам без ограничений!
.
Авторизация | Регистрация
bitok.xyz
Торрент скачать бесплатно Мультфильмы торрент скачать Долина муми-троллей / Moominvalley (2019) WEBRip [H.264 / 720p-LQ] (сезон 1, серии 1-13 из 13) HDRezka Studio торрент скачать бесплатно


    Долина муми-троллей / Moominvalley (2019) WEBRip [H.264 / 720p-LQ] (сезон 1, серии 1-13 из 13) HDRezka Studio торрент скачать бесплатно

    Дата: 7-02-2020, 05:00 | .torrent скачали: 2

    Долина муми-троллей / Moominvalley (2019) WEBRip [H.264 / 720p-LQ] (сезон 1, серии 1-13 из 13) HDRezka StudioПроизводство: Финляндия, Великобритания
    Жанр: Фэнтези, драма, семейный
    Режиссер: Стив Бокс, Даррен Робби, Avgousta Zourelidi

    Актеры
    Мэтт Берри, Уорвик Дэвис, Тэрон Эджертон, Эдвин Эндре, Розамунд Пайк, Бел Паули, Акия Генри, Уилл Селф, Джо Уилкинсон, Сьюзи Брэнн

    Описание

    Муми-тролль — любопытный, добрый, чуткий и идеалистичный подросток. Он взрослеет, пытаясь найти свое истинное я, оставаясь при этом частью семьи.

    Возраст: 0+ (для любой зрительской аудитории)
    Дата мировой премьеры: 1 февраля 2019
    Дата российской премьеры: 14 апреля 2019
    Продолжительность: ~00: 20: 00 серия
    Качество видео: WEBRip
    Перевод: Многоголосый профессиональный(HDRezka Studio)
    Субтитры: русские (хардсаб)
    Видео: AVC/H.264, 1280x720 (16: 9), ~2095 Kbps
    Аудио: AC3, 2 ch, 192 Kbps - русский
    Общее
    Уникальный идентификатор : 296953842101425466802707239101285873400 (0xDF673ACB06182D31F85274F122F136F8)
    Полное имя : G: Moominvalley.2019.S01.720pMoominvalley.S01E01.WEBRip.720p.mkv
    Формат : Matroska
    Версия формата : Version 4
    Размер файла : 362 Мбайт
    Продолжительность : 21 м. 40 с.
    Режим общего битрейта : Переменный
    Общий поток : 2336 Кбит/сек
    Программа кодирования : Lavf58.26.101
    Библиотека кодирования : Lavf58.26.101
    ErrorDetectionType : Per level 1
    Видео
    Идентификатор : 1
    Формат : AVC
    Формат/Информация : Advanced Video Codec
    Профиль формата : High@L4.1
    Настройки формата : CABAC/1 Ref Frames
    Параметр CABAC формата : Да
    Параметр RefFrames формата : 1 кадр
    Идентификатор кодека : V_MPEG4/ISO/AVC
    Продолжительность : 21 м. 37 с.
    Вид битрейта : Переменный
    Битрейт : 2097 Кбит/сек
    Максимальный битрейт : 2000 Кбит/сек
    Ширина : 1280 пикселей
    Высота : 720 пикселей
    Соотношение сторон : 16: 9
    Режим частоты кадров : Постоянный
    Частота кадров : 25, 000 кадров/сек
    Цветовое пространство : YUV
    Субдискретизация насыщенности : 4: 2: 0
    Битовая глубина : 8 бит
    Тип развёртки : Прогрессивная
    Бит/(Пиксели*Кадры) : 0.091
    Размер потока : 324 Мбайт (90%)
    Default : Да
    Forced : Нет
    Аудио
    Идентификатор : 2
    Формат : AC-3
    Формат/Информация : Audio Coding 3
    Коммерческое название : Dolby Digital
    Идентификатор кодека : A_AC3
    Продолжительность : 21 м. 40 с.
    Вид битрейта : Постоянный
    Битрейт : 192 Кбит/сек
    Каналы : 2 канала
    ChannelLayout : L R
    Частота : 48, 0 КГц
    Частота кадров : 31, 250 кадров/сек (1536 SPF)
    Битовая глубина : 32 бит
    Метод сжатия : С потерями
    Задержка видео : -5 мс.
    Размер потока : 29, 8 Мбайт (8%)
    Язык : Russian
    ServiceKind/String : Complete Main
    Default : Да
    Forced : Нет

    Скриншоты для ознакомления



    Все одноименные релизы в Клубе
    Время раздачи: 24/7 (круглосуточно) (до появления первых 3-5 скачавших)

    Онлайн видео Долина муми-троллей


    Долина муми-троллей / Moominvalley (2019) WEBRip [H.264 / 720p-LQ] (сезон 1, серии 1-13 из 13) HDRezka Studio торрент скачать бесплатно
    Рейтинг →
     (голосов: 1, оценка 4/5, голосовать можно 1 раз )

    Другие торренты по теме:

  • Силиконовая долина / Кремниевая долина / Silicon Valley (2017) WEBRip (сезон 4, серии 1 из 10) Кубик в Кубе (обновляемая)
  • Силиконовая долина / Кремниевая долина / Silicon Valley (2017) WEBRip [H.264 / 1080p-LQ] (сезон 4, серия 1 из 10) Кубик в Кубе (обновляемая)
  • Силиконовая долина / Кремниевая долина / Silicon Valley (2018) WEB-DLRip (сезон 5, серии 1-3 из 8) Кубик в Кубе (обновляемая)
  • Силиконовая долина / Кремниевая долина / Silicon Valley (2018) WEB-DL [H.264 / 1080p-LQ] (сезон 5, серии 1-3 из 8) Кубик в Кубе (обновляемая)
  • Силиконовая долина / Кремниевая долина / Silicon Valley (2018) WEB-DL [H.264 / 1080p-LQ] (сезон 5, серии 1-8 из 8) TVShows
  • Силиконовая долина / Кремниевая долина / Silicon Valley (2014) BDRemux [H.264 / 1080p] (сезон 1, серии 1-8 из 8) Amedia
  • Силиконовая долина / Кремниевая долина / Silicon Valley (2019) WEB-DL [H.264 / 1080p-LQ] (сезон 6, серии 1-1 из 7) Кубик в кубе (обновляемая)
  • Силиконовая долина / Кремниевая долина / Silicon Valley (2018) WEB-DLRip [H.264] (сезон 5, серии 1-8 из 8) Кубик в Кубе


    • Комментарии (0):

      Информация

      Информация

        Посетители, находящиеся в группе Гости, не могут оставлять комментарии в данной новости.

        ↓ Меню




        ↓ Опрос

        Вы добавили сайт в закладки?
        Да
        Нет


        Популярное

        Фиксики против Кработов (2019) WEB-DLRip

        (скачиваний: 134)
        Рик и Морти / Rick and Morty (2015) WEB-DL [H.264 / 1080p] (Сезон 2, серии 1-10 из 10) Сыендук [EN / RU Sub] скачать через торрент бесплатно

        (скачиваний: 109)
        М.Ю. Демидова | ЕГЭ-2020. Физика. 30 типовых вариантов (2020) [PDF]

        (скачиваний: 80)
        Малышарики (2015-2019) WEB-DL [H.264 / 1080p-LQ] (серии 1-154 из 208) [Обновляемая]

        (скачиваний: 67)
        Рик и Морти / Rick and Morty (2013) BDRip [H.264 / 720p-LQ] (сезон 1, серии 1-11 из 11) Сыендук

        (скачиваний: 65)
        Рик и Морти / Rick and Morty (2013) BDRip [H.264 / 1080p] (Сезон 1, серии 1-11 из 11) Сыендук [EN Sub] скачать через торрент бесплатно

        (скачиваний: 46)
        Фиксики против Кработов (2019) WEB-DL [H.264 / 1080p-LQ]

        (скачиваний: 32)
        Свинка Пеппа / Peppa Pig (2004-2012) SATRip (1-4 сезоны: 208 серий из 209) скачать через торрент бесплатно

        (скачиваний: 28)
        Рик и Морти / Rick and Morty (2017) WEBRip [H.264 / 720p-LQ] (Сезон 3, серии 1 из ) Сыендук

        (скачиваний: 26)
        Роботы-поезда / Robot Trains (2017) WEB-DL [H.264 / 720p-LQ] (1 сезон, 32 серий из 32)

        (скачиваний: 21)