ВАЖНО! Сайт скоро заблокируют! Подписывайся на наш канал в Telegram https://t.me/torrentok и получи доступ к торрентам без ограничений!
.
Авторизация | Регистрация
bitok.xyz
Торрент скачать бесплатно Мультфильмы торрент скачать Bishoujo Senshi Sailor Moon Crystal | Pretty Guardian Sailor Moon Crystal | Красавица-Воин Сейлор Мун: Кристалл [2014-2016, TV, 39] BDRip 1080p raw+rus торрент скачать бесплатно


    Bishoujo Senshi Sailor Moon Crystal | Pretty Guardian Sailor Moon Crystal | Красавица-Воин Сейлор Мун: Кристалл [2014-2016, TV, 39] BDRip 1080p raw+rus торрент скачать бесплатно

    Дата: 7-02-2020, 05:00 | .torrent скачали: 1

    Bishoujo Senshi Sailor Moon Crystal | Pretty Guardian Sailor Moon Crystal | Красавица-Воин Сейлор Мун: Кристалл [2014-2016, TV, 39] BDRip 1080p raw+rusТип: WEB (1-2)/TV (3)
    Жанр: Приключения, Махо-Сёдзё
    Продолжительность: ~ 25 Мин.
    Количество серий: 39 Эпизодов
    Дата выпуска: c05.07.2014 по27.06.2016
    Автор оригинала: Такэути Наоко
    Режиссер: Сакай Мунэхиса(1 2 Сезоны) / Кон Тиаки(3 Сезон)
    Производство: Toei Animation/ Япония

    World-Art |AniDB |MyAnimelist |Shikimori

    Описание

    Усаги — ученица второго класса средней школы; немного неловкая и немного плаксивая, по собственному признанию. Тем не менее энергии ей не занимать! Однажды она встречает Луну, говорящую черную кошку, которая заявляет, что теперь Усаги должна не только найти друзей, но и победить врагов. Кроме всего прочего, Луна дарит Усаги волшебную брошь, которая дает не только силы, но и сейлор-фуку, превращая нашу главную героиню в красавицу-война, защитницу любви и справедливости — Сейлор Мун. Теперь Усаги должна собрать остальных сейлор-воинов, чтобы отыскать Серебряный Кристалл и спасти Принцессу. Однако где есть красавицы-воины, должен быть и красавец. Куда же мы без любимого парня во фраке!
    Автор: Hollow ©World Art
    Качество Видео: BDRip
    Видео: AVC/x264 , 1920x1080, 23.976 fps, 6 781 kb/s, 0.136 bpp8-bit
    Язык озвучки: Японский и Русский
    Озвучка: Многоголосая закадровая
    1 2 Сезоны
    Аудио №1: AAC2.0 , 48.0 kHz, 157 kb/s(AniDub) |Язык:
    Аудио №2: AAC2.0 , 48.0 kHz, 125 kb/s(Kansai Studio) |Язык:
    Аудио №3: FLAC2.0 , 48.0 kHz, 723 kb/s 16-Bit(Original) |Язык:
    3 Сезон
    Аудио №1: AAC2.0 , 48.0 kHz, 192 kb/s(AniDub) |Язык:
    Аудио №2: AAC2.0 , 48.0 kHz, 192 kb/s(Shiza Project) |Язык:
    Аудио №3: FLAC2.0 , 48.0 kHz, 761 kb/s 16-Bit(Original) |Язык:
    Субтитры: Русские (Надписи/Полные)
    Язык:

    Скриншоты для ознакомления






    (Remake) S1E01. Usagi - Sailor Moon (Усаги - Сейлор Мун)
    (Remake) S1E02. Ami - Sailor Mercury (Ами - Сейлор Меркурий)
    (Remake) S1E03. Rei - Sailor Mars (Рэй - Сейлор Марс)
    (Remake) S1E04. Masquerade Dance Party (Бал - Маскарад)
    (Remake) S1E05. Makoto - Sailor Jupiter (Макото - Сейлор Юпитер)
    (Remake) S1E06. Tuxedo MaSk (Такседо Маск)
    (Remake) S1E07. Mamoru Chiba - Tuxedo Mask (Тиба Мамору - Таксидо Камэн)
    (Remake) S1E08. Minako - Sailor V (Минако - Сейлор Ви)
    (Remake) S1E09. Serenity - Prince (Серенити-Принцесса)
    (Remake) S1E10. Moon (Луна)
    (Remake) S1E11. Reunion - Endymion (Новая Встреча Эндимион)
    (Remake) S1E12. Enemy - Queen Metalia (Противник Королева Металлия)
    (Remake) S2E13. Final Battle - Reincarnation (Решающая Битва Реинкарнация)
    (Remake) S2E14. Conclusion and Commencement - Petite Etrangere (Конец И Начало Маленькая Незнакомка)
    (Remake) S2E15. Infiltration - Sailor Mars (Внедрение Сейлор Марс)
    (Remake) S2E16. Abduction - Sailor Mercury (Похищение Сейлор Меркурий)
    (Remake) S2E17. Secret - Sailor Jupiter (Тайна Сейлор Юпитер)
    (Remake) S2E18. Invasion - Sailor Venus (Вторжение Сейлор Венера)
    (Remake) S2E19. Time Warp - Sailor Pluto (Искажение Времени Сейлор Плутон)
    (Remake) S2E20. Crystal Tokyo - King Endymion (Хрустальный Токио Король Эндимион)
    (Remake) S2E21. Complication - Nemesis (Осложнение Немезида)
    (Remake) S2E22. Hidden Agenda - Nemesis (Ожидания Немезида)
    (Remake) S2E23. Covert Maneuvers - Wiseman (Тайные Манёвры Мудрец)
    (Remake) S2E24. Attack - Black Lady (Наступление Чёрная Леди)
    (Remake) S2E25. Showdown - Death Phantom (Противостояние Призрак Смерти)
    (Remake) S2E26. Replay - Never Ending (Возрождение Без Конца)
    (Remake) S3E27. First Part (Предчувствие Часть 1)
    (Remake) S3E28. Second Part (Предчувствие Часть 2)
    (Remake) S3E29. Ripples (Пульсация)
    (Remake) S3E30. Two New Soldiers (Двое Новых Воинов)
    (Remake) S3E31. Haruka Tenoh, Michiru Kaioh - Sailor Uranus, Sailor Neptune (Харука Тэно, Мичиру Кайо - Сейлор Уран и Сейлор Нептун)
    (Remake) S3E32. Setsuna Meioh - Sailor Pluto (Сэцуна Мэйо - Сейлор Плутон)
    (Remake) S3E33. Three Guardians (Три Воительницы)
    (Remake) S3E34. Transformation - Super Sailor Moon (Трансформация - Супер Сейлор Мун)
    (Remake) S3E35. Infinite Labyrinth 1 (В Бесконечном Лабиринте Часть 1)
    (Remake) S3E36. Infinite Labyrinth 2 (В Бесконечном Лабиринте Часть 2)
    (Remake) S3E37. Upper Atmosphere (Верхний Слой Атмосферы)
    (Remake) S3E38. Judge (Судья)
    (Remake) S3E39. Journey (Путешествие)

    Оригинальный сериал

    01) Sailor Moon TV-1(в процессе работы)
    02) Sailor Moon R TV-2(в процессе работы)
    03) Sailor Moon R Movie. Promise Of The Rose(в процессе работы)
    04) Sailor Moon R Special. Make-Up! Sailor Senshi(в процессе работы)
    05) Sailor Moon S TV-3(в процессе работы)
    06) Sailor Moon S Movie. Hearts In Ice(в процессе работы)
    07) Sailor Moon Super S TV-4(в процессе работы)
    08) Sailor Moon Super S Special(в процессе работы)
    09) Sailor Moon Super S Movie. Black Dream Hole(в процессе работы)
    10) Sailor Moon Super S Special. Ami-Chan No Hatsukoi(в процессе работы)
    11) Sailor Moon Sailor Stars TV-5(в процессе работы)
    Ремейк
    12) Sailor Moon Crystal TV-1 2(Эта Раздача)
    13) Sailor Moon Crystal TV-3(Эта Раздача)
    14) Sailor Moon Eternal(анонс)

    General
    Unique ID : 38147803902745781752817592625357742061 (0x1CB2FFF1E71209182235DF94D24D5FED)
    Complete name : J: АнимеКрасавица-Воин Сейлор Мун (Bishoujo Senshi Sailor Moon) BDRip (1992-2020)(Remake) S1E01. Usagi - Sailor Moon (Усаги - Сейлор Мун).mkv
    Format : Matroska
    Format version : Version 4
    File size : 1.34 GiB
    Duration : 24 min 32 s
    Overall bit rate mode : Variable
    Overall bit rate : 7 820 kb/s
    Encoded date : UTC 2020-01-24 09: 43: 06
    Writing application : mkvmerge v41.0.0 (\'Smarra\') 64-bit
    Writing library : libebml v1.3.9 + libmatroska v1.5.2
    Attachments : calibriz.ttf/corbelb.ttf/impact.ttf/segoesc.ttf/segoescb.ttf/times.ttf/timesbd.ttf/Brush_m.ttf/calibrib.ttf
    Video
    ID : 1
    Format : AVC
    Format/Info : Advanced Video Codec
    Format profile : High@L5
    Format settings : CABAC/5 Ref Frames
    Format settings, CABAC : Yes
    Format settings, Reference : 5 frames
    Codec ID : V_MPEG4/ISO/AVC
    Duration : 24 min 32 s
    Bit rate : 6 781 kb/s
    Width : 1 920 pixels
    Height : 1 080 pixels
    Display aspect ratio : 16: 9
    Frame rate mode : Constant
    Frame rate : 23.976 (24000/1001) FPS
    Color space : YUV
    Chroma subsampling : 4: 2: 0
    Bit depth : 8 bits
    Scan type : Progressive
    Bits/(Pixel*Frame) : 0.136
    Stream size : 1.16 GiB (87%)
    Writing library : x264 core 157 r2935 545de2f
    Encoding settings : cabac=1/ref=5/deblock=1: 1: 1/analyse=0x3: 0x113/me=umh/subme=9/psy=1/psy_rd=1.00: 0.00/mixed_ref=1/me_range=32/chroma_me=1/trellis=1/8x8dct=1/cqm=0/deadzone=21, 11/fast_pskip=0/chroma_qp_offset=-2/threads=34/lookahead_threads=2/sliced_threads=0/nr=0/decimate=1/interlaced=0/bluray_compat=0/stitchable=1/constrained_intra=0/bframes=3/b_pyramid=2/b_adapt=2/b_bias=0/direct=1/weightb=1/open_gop=0/weightp=1/keyint=240/keyint_min=23/scenecut=40/intra_refresh=0/rc_lookahead=40/rc=crf/mbtree=1/crf=16.0/qcomp=0.65/qpmin=0/qpmax=69/qpstep=4/ip_ratio=1.40/aq=1: 1.00
    Language : Japanese
    Default : Yes
    Forced : No
    Audio #1
    ID : 2
    Format : AAC LC
    Format/Info : Advanced Audio Codec Low Complexity
    Codec ID : A_AAC-2
    Duration : 24 min 32 s
    Bit rate : 157 kb/s
    Channel(s) : 2 channels
    Channel layout : L R
    Sampling rate : 48.0 kHz
    Frame rate : 46.875 FPS (1024 SPF)
    Compression mode : Lossy
    Stream size : 27.6 MiB (2%)
    Title : AniDub
    Language : Russian
    Default : Yes
    Forced : No
    Audio #2
    ID : 3
    Format : AAC LC
    Format/Info : Advanced Audio Codec Low Complexity
    Codec ID : A_AAC-2
    Duration : 24 min 32 s
    Bit rate : 125 kb/s
    Channel(s) : 2 channels
    Channel layout : L R
    Sampling rate : 48.0 kHz
    Frame rate : 46.875 FPS (1024 SPF)
    Compression mode : Lossy
    Stream size : 22.0 MiB (2%)
    Title : Kansai Studio
    Language : Russian
    Default : No
    Forced : No
    Audio #3
    ID : 4
    Format : FLAC
    Format/Info : Free Lossless Audio Codec
    Codec ID : A_FLAC
    Duration : 24 min 32 s
    Bit rate mode : Variable
    Bit rate : 723 kb/s
    Channel(s) : 2 channels
    Channel layout : L R
    Sampling rate : 48.0 kHz
    Frame rate : 11.719 FPS (4096 SPF)
    Bit depth : 16 bits
    Compression mode : Lossless
    Stream size : 127 MiB (9%)
    Title : Original
    Writing library : libFLAC 1.3.2 (UTC 2017-01-01)
    Language : Japanese
    Default : No
    Forced : No
    Text #1
    ID : 5
    Format : ASS
    Codec ID : S_TEXT/ASS
    Codec ID/Info : Advanced Sub Station Alpha
    Duration : 19 min 58 s
    Bit rate : 204 b/s
    Count of elements : 185
    Compression mode : Lossless
    Stream size : 30.0 KiB (0%)
    Title : Forced
    Language : Russian
    Default : Yes
    Forced : No
    Text #2
    ID : 6
    Format : ASS
    Codec ID : S_TEXT/ASS
    Codec ID/Info : Advanced Sub Station Alpha
    Duration : 20 min 29 s
    Bit rate : 316 b/s
    Count of elements : 459
    Compression mode : Lossless
    Stream size : 47.6 KiB (0%)
    Title : Full
    Language : Russian
    Default : No
    Forced : No

    General
    Unique ID : 105948243171547368683354110353088277060 (0x4FB4E3B03CF5AF1A1F88079DC7E96A44)
    Complete name : J: АнимеКрасавица-Воин Сейлор Мун (Bishoujo Senshi Sailor Moon) BDRip (1992-2020)(Remake) S2E13. Final Battle - Reincarnation (Решающая Битва Реинкарнация).mkv
    Format : Matroska
    Format version : Version 4
    File size : 1.40 GiB
    Duration : 24 min 32 s
    Overall bit rate mode : Variable
    Overall bit rate : 8 191 kb/s
    Encoded date : UTC 2020-01-24 09: 56: 40
    Writing application : mkvmerge v41.0.0 (\'Smarra\') 64-bit
    Writing library : libebml v1.3.9 + libmatroska v1.5.2
    Attachments : Brush_m.ttf/calibrib.ttf/calibriz.ttf/corbelb.ttf/impact.ttf/segoesc.ttf/segoescb.ttf/times.ttf/timesbd.ttf
    Video
    ID : 1
    Format : AVC
    Format/Info : Advanced Video Codec
    Format profile : High@L5
    Format settings : CABAC/5 Ref Frames
    Format settings, CABAC : Yes
    Format settings, Reference : 5 frames
    Codec ID : V_MPEG4/ISO/AVC
    Duration : 24 min 32 s
    Bit rate : 7 113 kb/s
    Width : 1 920 pixels
    Height : 1 080 pixels
    Display aspect ratio : 16: 9
    Frame rate mode : Constant
    Frame rate : 23.976 (24000/1001) FPS
    Color space : YUV
    Chroma subsampling : 4: 2: 0
    Bit depth : 8 bits
    Scan type : Progressive
    Bits/(Pixel*Frame) : 0.143
    Stream size : 1.22 GiB (87%)
    Writing library : x264 core 157 r2935 545de2f
    Encoding settings : cabac=1/ref=5/deblock=1: 1: 1/analyse=0x3: 0x113/me=umh/subme=9/psy=1/psy_rd=1.00: 0.00/mixed_ref=1/me_range=32/chroma_me=1/trellis=1/8x8dct=1/cqm=0/deadzone=21, 11/fast_pskip=0/chroma_qp_offset=-2/threads=34/lookahead_threads=2/sliced_threads=0/nr=0/decimate=1/interlaced=0/bluray_compat=0/stitchable=1/constrained_intra=0/bframes=3/b_pyramid=2/b_adapt=2/b_bias=0/direct=1/weightb=1/open_gop=0/weightp=1/keyint=240/keyint_min=23/scenecut=40/intra_refresh=0/rc_lookahead=40/rc=crf/mbtree=1/crf=16.0/qcomp=0.65/qpmin=0/qpmax=69/qpstep=4/ip_ratio=1.40/aq=1: 1.00
    Language : Japanese
    Default : Yes
    Forced : No
    Audio #1
    ID : 2
    Format : AAC LC
    Format/Info : Advanced Audio Codec Low Complexity
    Codec ID : A_AAC-2
    Duration : 24 min 32 s
    Bit rate : 157 kb/s
    Channel(s) : 2 channels
    Channel layout : L R
    Sampling rate : 48.0 kHz
    Frame rate : 46.875 FPS (1024 SPF)
    Compression mode : Lossy
    Stream size : 27.6 MiB (2%)
    Title : AniDub
    Language : Russian
    Default : Yes
    Forced : No
    Audio #2
    ID : 3
    Format : AAC LC
    Format/Info : Advanced Audio Codec Low Complexity
    Codec ID : A_AAC-2
    Duration : 24 min 32 s
    Bit rate : 125 kb/s
    Channel(s) : 2 channels
    Channel layout : L R
    Sampling rate : 48.0 kHz
    Frame rate : 46.875 FPS (1024 SPF)
    Compression mode : Lossy
    Stream size : 22.0 MiB (2%)
    Title : Kansai Studio
    Language : Russian
    Default : No
    Forced : No
    Audio #3
    ID : 4
    Format : FLAC
    Format/Info : Free Lossless Audio Codec
    Codec ID : A_FLAC
    Duration : 24 min 32 s
    Bit rate mode : Variable
    Bit rate : 761 kb/s
    Channel(s) : 2 channels
    Channel layout : L R
    Sampling rate : 48.0 kHz
    Frame rate : 11.719 FPS (4096 SPF)
    Bit depth : 16 bits
    Compression mode : Lossless
    Stream size : 134 MiB (9%)
    Title : Original
    Writing library : libFLAC 1.3.2 (UTC 2017-01-01)
    Language : Japanese
    Default : No
    Forced : No
    Text #1
    ID : 5
    Format : ASS
    Codec ID : S_TEXT/ASS
    Codec ID/Info : Advanced Sub Station Alpha
    Duration : 22 min 55 s
    Bit rate : 61 b/s
    Count of elements : 65
    Compression mode : Lossless
    Stream size : 10.3 KiB (0%)
    Title : Forced
    Language : Russian
    Default : Yes
    Forced : No
    Text #2
    ID : 6
    Format : ASS
    Codec ID : S_TEXT/ASS
    Codec ID/Info : Advanced Sub Station Alpha
    Duration : 24 min 24 s
    Bit rate : 152 b/s
    Count of elements : 342
    Compression mode : Lossless
    Stream size : 27.3 KiB (0%)
    Title : Full
    Language : Russian
    Default : No
    Forced : No

    General
    Unique ID : 183144551691505852906084636358108147185 (0x89C85B8D56A973C319E40111A1866DF1)
    Complete name : J: АнимеКрасавица-Воин Сейлор Мун (Bishoujo Senshi Sailor Moon) BDRip (1992-2020)(Remake) S3E27. First Part (Предчувствие Часть 1).mkv
    Format : Matroska
    Format version : Version 4
    File size : 1.47 GiB
    Duration : 24 min 7 s
    Overall bit rate mode : Variable
    Overall bit rate : 8 720 kb/s
    Encoded date : UTC 2020-01-24 10: 11: 07
    Writing application : mkvmerge v41.0.0 (\'Smarra\') 64-bit
    Writing library : libebml v1.3.9 + libmatroska v1.5.2
    Video
    ID : 1
    Format : AVC
    Format/Info : Advanced Video Codec
    Format profile : High@L5
    Format settings : CABAC/5 Ref Frames
    Format settings, CABAC : Yes
    Format settings, Reference : 5 frames
    Codec ID : V_MPEG4/ISO/AVC
    Duration : 24 min 7 s
    Bit rate : 7 577 kb/s
    Width : 1 920 pixels
    Height : 1 080 pixels
    Display aspect ratio : 16: 9
    Frame rate mode : Constant
    Frame rate : 23.976 (24000/1001) FPS
    Color space : YUV
    Chroma subsampling : 4: 2: 0
    Bit depth : 8 bits
    Scan type : Progressive
    Bits/(Pixel*Frame) : 0.152
    Stream size : 1.28 GiB (87%)
    Writing library : x264 core 157 r2935 545de2f
    Encoding settings : cabac=1/ref=5/deblock=1: 1: 1/analyse=0x3: 0x113/me=umh/subme=9/psy=1/psy_rd=1.00: 0.00/mixed_ref=1/me_range=32/chroma_me=1/trellis=1/8x8dct=1/cqm=0/deadzone=21, 11/fast_pskip=0/chroma_qp_offset=-2/threads=34/lookahead_threads=2/sliced_threads=0/nr=0/decimate=1/interlaced=0/bluray_compat=0/stitchable=1/constrained_intra=0/bframes=3/b_pyramid=2/b_adapt=2/b_bias=0/direct=1/weightb=1/open_gop=0/weightp=1/keyint=240/keyint_min=23/scenecut=40/intra_refresh=0/rc_lookahead=40/rc=crf/mbtree=1/crf=16.0/qcomp=0.65/qpmin=0/qpmax=69/qpstep=4/ip_ratio=1.40/aq=1: 1.00
    Language : Japanese
    Default : Yes
    Forced : No
    Audio #1
    ID : 2
    Format : AAC LC
    Format/Info : Advanced Audio Codec Low Complexity
    Codec ID : A_AAC-2
    Duration : 24 min 7 s
    Bit rate : 192 kb/s
    Channel(s) : 2 channels
    Channel layout : L R
    Sampling rate : 48.0 kHz
    Frame rate : 46.875 FPS (1024 SPF)
    Compression mode : Lossy
    Stream size : 32.7 MiB (2%)
    Title : AniDub
    Language : Russian
    Default : Yes
    Forced : No
    Audio #2
    ID : 3
    Format : AAC LC
    Format/Info : Advanced Audio Codec Low Complexity
    Codec ID : A_AAC-2
    Duration : 24 min 7 s
    Bit rate : 192 kb/s
    Channel(s) : 2 channels
    Channel layout : L R
    Sampling rate : 48.0 kHz
    Frame rate : 46.875 FPS (1024 SPF)
    Compression mode : Lossy
    Stream size : 32.7 MiB (2%)
    Title : Shiza Project
    Language : Russian
    Default : No
    Forced : No
    Audio #3
    ID : 4
    Format : FLAC
    Format/Info : Free Lossless Audio Codec
    Codec ID : A_FLAC
    Duration : 24 min 7 s
    Bit rate mode : Variable
    Bit rate : 761 kb/s
    Channel(s) : 2 channels
    Channel layout : L R
    Sampling rate : 48.0 kHz
    Frame rate : 11.719 FPS (4096 SPF)
    Bit depth : 16 bits
    Compression mode : Lossless
    Stream size : 131 MiB (9%)
    Title : Original
    Writing library : libFLAC 1.3.2 (UTC 2017-01-01)
    Language : Japanese
    Default : No
    Forced : No
    Text #1
    ID : 5
    Format : ASS
    Codec ID : S_TEXT/ASS
    Codec ID/Info : Advanced Sub Station Alpha
    Duration : 24 min 2 s
    Bit rate : 43 b/s
    Count of elements : 78
    Compression mode : Lossless
    Stream size : 7.65 KiB (0%)
    Title : Forced
    Language : Russian
    Default : Yes
    Forced : No
    Text #2
    ID : 6
    Format : ASS
    Codec ID : S_TEXT/ASS
    Codec ID/Info : Advanced Sub Station Alpha
    Duration : 24 min 5 s
    Bit rate : 154 b/s
    Count of elements : 349
    Compression mode : Lossless
    Stream size : 27.3 KiB (0%)
    Title : Full
    Language : Russian
    Default : No
    Forced : No
    Время раздачи: С 8: 00 по 18: 00 МСК (до появления первых 3-5 скачавших)
    Понравился релиз? Ставь Оценку и нажми Спасибо
    Это серьёзно меня мотивирует делать подобные релизы.



    Онлайн видео Bishoujo Senshi Sailor Moon Crystal


    Bishoujo Senshi Sailor Moon Crystal | Pretty Guardian Sailor Moon Crystal | Красавица-Воин Сейлор Мун: Кристалл [2014-2016, TV, 39] BDRip 1080p raw+rus торрент скачать бесплатно
    Рейтинг →
     (голосов: 1, оценка 3/5, голосовать можно 1 раз )

    Другие торренты по теме:

  • Bishoujo Senshi Sailor Moon Super S: Sailor 9 Senshi Shuuketsu! Black Dream Hole no Kiseki | Pretty Soldier Sailor Moon Super S: Black Dream Hole | Красавица-воин Сейлор Мун Супер Эс: Чёрная дыра снов [1995, Movie] BDRip 1080p raw
  • Bishoujo Senshi Sailor Moon Crystal / Прекрасная воительница Сейлор Мун: Кристалл [2014, TV, 5 из 12] WebRip 720p raw
  • Bishoujo Senshi Sera Mun Kurisutaru / Pretty Guardian Sailor Moon Crystal / Прекрасная воительница Сейлор Мун Кристалл ТВ [2014, 1-2 из 12] BDRip 1080p Hi10p Raw скачать через торрент бесплатно
  • Bishoujo Senshi Sera Mun Kurisutaru / Pretty Guardian Sailor Moon Crystal / Прекрасная воительница Сейлор Мун Кристалл ТВ [2014, 1-2 из 12] BDRip 1080p Hi10p Raw скачать через торрент бесплатно
  • Bishoujo Senshi Sailor Moon Crystal / Pretty Guardian Sailor Moon Crystal / Прекрасная воительница Сейлор Мун: Кристалл [2014, TV, 26 ep] BDRip Hi10p 720p Raw+Rus(ext) скачать через торрент бесплатно
  • Bishoujo Senshi Sera Mun Kurisutaru Season III / Прекрасная воительница Сейлор Мун Кристалл - 3 [2016, TV, 1 из 13] WEB-DLRip 720p raw
  • Bishoujo Senshi Sailor Moon R / Sailor Moon R Movie: Promise of the Rose + SP / Красавица-воин Сейлор Мун Эр Фильм + SP [1993, Movie] BDRip 1080 10bit HEVC raw+eng
  • Bishoujo Senshi Sailor Moon S: Kaguya Hime no Koibito / Sailor Moon S Movie: Hearts in Ice / Красавица-воин Сейлор Мун Эс: Снежная принцеса Кагуя [1994] DVDrip raw + rus


    • Комментарии (0):

      Информация

      Информация

        Посетители, находящиеся в группе Гости, не могут оставлять комментарии в данной новости.

        ↓ Меню




        Популярное

        Металионы / Metalions (2018-2019) WEB-DLRip [H.264 / 720p-LQ] (сезон 1, серии 1-52 из 52) [Обновляемая]

        (скачиваний: 11)
        Фиксики против Кработов (2019) WEB-DL [H.264 / 1080p-LQ]

        (скачиваний: 10)
        Роботы-пожарные / Fire Robo (2016) WEB-DLRip [H.264 / 720p-LQ] (сезон 1, серии 1-26 из 26) [Обновляемая]

        (скачиваний: 8)
        Фиксики против Кработов (2019) WEB-DLRip

        (скачиваний: 7)
        Жила-была царевна (2015-2019) WEB-DLRip [H.264 / 720p-LQ] (сезон 1, серии 1-18 из 26) [Обновляемая]

        (скачиваний: 7)
        Лея Уотерс | Переключение на силу. Как научиться видеть в детях сильные стороны, чтобы помочь им расцвести (2019) [EPUB]

        (скачиваний: 5)
        Kaze no Na wa Amnesia / A Wind Named Amnesia / Ветер амнезии [1990, MV] DVDRip raw

        (скачиваний: 5)
        Канакина В. П., Горецкий В. Г. Электронное приложение к учебнику «Русский язык», 2 класс (2012) [ISO] скачать через торрент бесплатно

        (скачиваний: 5)
        Александр Нилл | Воспитание свободой. Школа Саммерхилл (2020) [EPUB]

        (скачиваний: 5)
        Роберт Кийосаки | Богатый папа, бедный папа для подростков (2014) [PDF, FB2]

        (скачиваний: 5)