Подписывайся на наш канал в Telegram https://t.me/torrentok и получи доступ к торрентам без ограничений!
.
Авторизация | Регистрация
bitok.xyz
Торрент скачать бесплатно Мультфильмы торрент скачать Kokoro ga Sakebitagatterunda | The Anthem of the Heart | Сердцу Хочется Петь [2015, Movie] BDRip 1080p 10-bit raw+rus торрент скачать бесплатно


    Kokoro ga Sakebitagatterunda | The Anthem of the Heart | Сердцу Хочется Петь [2015, Movie] BDRip 1080p 10-bit raw+rus торрент скачать бесплатно

    Дата: 7-02-2020, 05:00 | .torrent скачали: 0

    Kokoro ga Sakebitagatterunda | The Anthem of the Heart | Сердцу Хочется Петь [2015, Movie] BDRip 1080p 10-bit raw+rusТип: Movie
    Жанр: Романтика, Драма
    Продолжительность: 1: 59: 19
    Дата выпуска: 19.09.2015
    Автор оригинала: Окада Мари
    Режиссер: Нагай Тацуюки
    Производство: A-1 Pictures/ Япония

    World-Art |AniDB |MyAnimelist |Shikimori

    Описание

    Способность говорить даёт великую возможность выражать свои мысли и чувства, делиться ими с кем-то. Эта способность по-настоящему делает человека счастливым. Но слова могут ранить, причинить невыносимую боль. Сказанное сгоряча, в порыве безудержного гнева, и слова, которые не имели своей целью обидеть... Жизнь учит нас быть сдержанными в выражениях, но фразеологизму держи язык за зубами, к сожалению, внимают не все.
    Когда-то Джун была счастлива. Но слишком молода, чтобы понять простую истину: не только поступки могут нанести вред кому бы то ни было. Пара слов, и семья оказалась разрушена. И в этом была только её вина. Но вот откуда ни возьмись перед девочкой появляется крошечный дух в виде забавного яйца. И волшебным образом запечатывает её голос, чтобы Джун больше никогда не смогла причинить кому-то страдания.
    Так, отныне немая, но с терзаемым горечью сердцем, в тени собственного отчуждения, она продолжает жить и взрослеть. Пока однажды удача не протягивает ей свою тёплую ладонь и, крепко взяв девочку за руку, провожает её из темноты сожалений к ослепительному свету, навстречу людям, в чьих силах её изменить. Джун вдруг понимает, что счастье было недалеко, и что израненному сердцу, такому маленькому сердцу, так сильно хочется кричать.
    Автор: Joseph ©Shikimori
    Качество Видео: BDRip
    Видео: AVC/x264 , 1920x1080, 23.976 fps, 2 981 kb/s, 0.060 bpp10-bit
    Язык Озвучки: Японский и Русский
    Перевод: Многоголосый закадровый
    Аудио №1: AC32.0 , 48.0 kHz, 192 kb/s(STEPonee) |Язык:
    Аудио №2: AC35.1 , 48.0 kHz, 448 kb/s(AniFilm) |Язык:
    Аудио №3: AAC2.0 , 48.0 kHz, 192 kb/s(AniDub) |Язык:
    Аудио №4: AAC2.0 , 48.0 kHz, 192 kb/s(Shiza Project) |Язык:
    Аудио №5: FLAC5.1 , 48.0 kHz, 2 754 kb/s 24-Bit(Onibaku) |Язык:
    Аудио №6: FLAC5.1 , 48.0 kHz, 2 795 kb/s 24-Bit(Original) |Язык:
    Субтитры: Русские
    Перевод: Надписи/Полные |Язык: (Timecraft)

    Скриншоты для ознакомления





    General
    Unique ID : 254483689639481727022738777699831214822 (0xBF73C69C5E2513D6BED6E679D26372E6)
    Complete name : J: АнимеСердцу Хочется Петь (Kokoro ga Sakebitagatterunda) BDRip (2015).mkv
    Format : Matroska
    Format version : Version 4
    File size : 7.98 GiB
    Duration : 1 h 59 min
    Overall bit rate mode : Variable
    Overall bit rate : 9 574 kb/s
    Encoded date : UTC 2020-02-06 09: 56: 11
    Writing application : mkvmerge v43.0.0 (\'The Quartermaster\') 64-bit
    Writing library : libebml v1.3.10 + libmatroska v1.5.2
    Cover : Yes
    Attachments : cover.jpg/corbelb.ttf/DS Eraser Cyr (Regular).ttf/Mateur (Medium).ttf/PF Kids Pro Grade One (Regular).ttf/SansRoundedC (Regular).otf/v_Billy The Flying Robot BB LC (Regular).ttf/VDS (Regular).ttf/verdanab.ttf/Zhizn (Regular).otf/arial.ttf/arialbd.ttf/cambria.ttc/cambriab.ttf/Century Gothic (Bold Italic).TTF/Century Gothic (Bold).TTF/corbel.ttf/arial.ttf/arialbd.ttf/cambria.ttc/cambriab.ttf/Century Gothic (Bold Italic).TTF/Century Gothic (Bold).TTF/corbel.ttf/corbelb.ttf/DS Eraser Cyr (Regular).ttf/Mateur (Medium).ttf/PF Kids Pro Grade One (Regular).ttf/SansRoundedC (Regular).otf/v_Billy The Flying Robot BB LC (Regular).ttf/VDS (Regular).ttf/verdanab.ttf/Zhizn (Regular).otf
    Video
    ID : 1
    Format : AVC
    Format/Info : Advanced Video Codec
    Format profile : High 10@L5
    Format settings : CABAC/4 Ref Frames
    Format settings, CABAC : Yes
    Format settings, Reference : 4 frames
    Codec ID : V_MPEG4/ISO/AVC
    Duration : 1 h 59 min
    Bit rate : 2 981 kb/s
    Width : 1 920 pixels
    Height : 1 080 pixels
    Display aspect ratio : 16: 9
    Frame rate mode : Constant
    Frame rate : 23.976 (24000/1001) FPS
    Color space : YUV
    Chroma subsampling : 4: 2: 0
    Bit depth : 10 bits
    Scan type : Progressive
    Bits/(Pixel*Frame) : 0.060
    Stream size : 2.48 GiB (31%)
    Writing library : x264 core 148 r2579 73ae2d1
    Encoding settings : cabac=1/ref=4/deblock=1: 1: -1/analyse=0x3: 0x113/me=umh/subme=9/psy=1/psy_rd=1.00: 0.00/mixed_ref=1/me_range=32/chroma_me=1/trellis=2/8x8dct=1/cqm=0/deadzone=21, 11/fast_pskip=1/chroma_qp_offset=-2/threads=12/lookahead_threads=2/sliced_threads=0/nr=0/decimate=1/interlaced=0/bluray_compat=0/constrained_intra=0/bframes=9/b_pyramid=2/b_adapt=2/b_bias=0/direct=1/weightb=1/open_gop=0/weightp=2/keyint=250/keyint_min=23/scenecut=40/intra_refresh=0/rc=crf/mbtree=0/crf=16.0/qcomp=0.72/qpmin=0/qpmax=81/qpstep=4/ip_ratio=1.40/pb_ratio=1.30/aq=1: 0.85
    Language : Japanese
    Default : Yes
    Forced : No
    Color range : Limited
    Color primaries : BT.709
    Transfer characteristics : BT.709
    Matrix coefficients : BT.709
    Audio #1
    ID : 2
    Format : AC-3
    Format/Info : Audio Coding 3
    Commercial name : Dolby Digital
    Codec ID : A_AC3
    Duration : 1 h 59 min
    Bit rate mode : Constant
    Bit rate : 192 kb/s
    Channel(s) : 2 channels
    Channel layout : L R
    Sampling rate : 48.0 kHz
    Frame rate : 31.250 FPS (1536 SPF)
    Compression mode : Lossy
    Stream size : 164 MiB (2%)
    Title : STEPonee
    Language : Russian
    Service kind : Complete Main
    Default : Yes
    Forced : No
    Audio #2
    ID : 3
    Format : AC-3
    Format/Info : Audio Coding 3
    Commercial name : Dolby Digital
    Codec ID : A_AC3
    Duration : 1 h 59 min
    Bit rate mode : Constant
    Bit rate : 448 kb/s
    Channel(s) : 6 channels
    Channel layout : L R C LFE Ls Rs
    Sampling rate : 48.0 kHz
    Frame rate : 31.250 FPS (1536 SPF)
    Compression mode : Lossy
    Stream size : 382 MiB (5%)
    Title : AniFilm
    Language : Russian
    Service kind : Complete Main
    Default : No
    Forced : Yes
    Audio #3
    ID : 4
    Format : AAC LC
    Format/Info : Advanced Audio Codec Low Complexity
    Codec ID : A_AAC-2
    Duration : 1 h 59 min
    Bit rate : 192 kb/s
    Channel(s) : 2 channels
    Channel layout : L R
    Sampling rate : 48.0 kHz
    Frame rate : 46.875 FPS (1024 SPF)
    Compression mode : Lossy
    Stream size : 166 MiB (2%)
    Title : Shiza Project
    Language : Russian
    Default : No
    Forced : No
    Audio #4
    ID : 5
    Format : AAC LC
    Format/Info : Advanced Audio Codec Low Complexity
    Codec ID : A_AAC-2
    Duration : 1 h 59 min
    Bit rate : 192 kb/s
    Channel(s) : 2 channels
    Channel layout : L R
    Sampling rate : 48.0 kHz
    Frame rate : 46.875 FPS (1024 SPF)
    Compression mode : Lossy
    Stream size : 164 MiB (2%)
    Title : AniDub
    Language : Russian
    Default : No
    Forced : No
    Audio #5
    ID : 6
    Format : FLAC
    Format/Info : Free Lossless Audio Codec
    Codec ID : A_FLAC
    Duration : 1 h 59 min
    Bit rate mode : Variable
    Bit rate : 2 754 kb/s
    Channel(s) : 6 channels
    Channel layout : L R C LFE Ls Rs
    Sampling rate : 48.0 kHz
    Frame rate : 11.719 FPS (4096 SPF)
    Bit depth : 24 bits
    Compression mode : Lossless
    Stream size : 2.30 GiB (29%)
    Title : Onibaku
    Writing library : libFLAC 1.2.1 (UTC 2007-09-17)
    Language : Russian
    Default : No
    Forced : Yes
    Audio #6
    ID : 7
    Format : FLAC
    Format/Info : Free Lossless Audio Codec
    Codec ID : A_FLAC
    Duration : 1 h 59 min
    Bit rate mode : Variable
    Bit rate : 2 795 kb/s
    Channel(s) : 6 channels
    Channel layout : L R C LFE Ls Rs
    Sampling rate : 48.0 kHz
    Frame rate : 11.719 FPS (4096 SPF)
    Bit depth : 24 bits
    Compression mode : Lossless
    Stream size : 2.33 GiB (29%)
    Title : Original
    Writing library : libFLAC 1.3.1 (UTC 2014-11-25)
    Language : Japanese
    Default : No
    Forced : No
    Text #1
    ID : 8
    Format : ASS
    Codec ID : S_TEXT/ASS
    Codec ID/Info : Advanced Sub Station Alpha
    Duration : 1 h 57 min
    Bit rate : 19 b/s
    Count of elements : 188
    Compression mode : Lossless
    Stream size : 16.4 KiB (0%)
    Title : Forced (Timecraft)
    Language : Russian
    Default : Yes
    Forced : No
    Text #2
    ID : 9
    Format : ASS
    Codec ID : S_TEXT/ASS
    Codec ID/Info : Advanced Sub Station Alpha
    Duration : 1 h 59 min
    Bit rate : 648 b/s
    Count of elements : 4250
    Compression mode : Lossless
    Stream size : 565 KiB (0%)
    Title : Full (Timecraft)
    Language : Russian
    Default : No
    Forced : No
    Menu
    00: 00: 00.000 : ru: 1
    00: 05: 00.000 : ru: 2
    00: 10: 00.000 : ru: 3
    00: 15: 00.000 : ru: 4
    00: 20: 00.000 : ru: 5
    00: 25: 00.000 : ru: 6
    00: 30: 00.000 : : 7
    00: 35: 00.000 : : 8
    00: 40: 00.000 : : 9
    00: 45: 00.000 : : 10
    00: 50: 00.000 : : 11
    00: 55: 00.000 : : 12
    01: 00: 00.000 : : 13
    01: 05: 00.000 : : 14
    01: 10: 00.000 : : 15
    01: 15: 00.000 : : 16
    01: 20: 00.000 : : 17
    01: 25: 00.000 : : 18
    01: 30: 00.000 : : 19
    01: 35: 00.000 : : 20
    01: 40: 00.000 : : 21
    01: 45: 00.000 : : 22
    01: 50: 00.000 : : 23
    01: 55: 00.000 : : 24
    Время раздачи: С 8: 00 по 18: 00 МСК (до появления первых 3-5 скачавших)
    Понравился релиз? Ставь Оценку и нажми Спасибо
    Это серьёзно меня мотивирует делать подобные релизы.



    Онлайн видео Kokoro ga Sakebitagatterunda


    Kokoro ga Sakebitagatterunda | The Anthem of the Heart | Сердцу Хочется Петь [2015, Movie] BDRip 1080p 10-bit raw+rus торрент скачать бесплатно
    Рейтинг →
     (голосов: 1, оценка 4/5, голосовать можно 1 раз )

    Другие торренты по теме:

  • Kokoro ga Sakebitagatterunda | Kokosake | The Anthem of the Heart | Сердцу хочется петь [2015, MV] BDrip 1080p Hi10p raw
  • Kokoro ga Sakebitagatterunda. (Kokosake) / The Anthem of the Heart / Сердцу хочется петь (2015) [MP3|320 Kbps] <OST>
  • Kokoro ga Sakebitagatterunda / The Anthem of the Heart / Сердцу хочется петь [2015, Movie] BDRemux 1080p raw+rus
  • Сердцу хочется кричать / Kokoro ga sakebitagatterunda / The Anthem of the Heart (2017) HDRip [2 x DVO]


    • Комментарии (0):

      Информация

      Информация

        Посетители, находящиеся в группе Гости, не могут оставлять комментарии в данной новости.

        ↓ Меню




        Популярное

        Фиксики против Кработов (2019) WEB-DLRip

        (скачиваний: 134)
        Рик и Морти / Rick and Morty (2015) WEB-DL [H.264 / 1080p] (Сезон 2, серии 1-10 из 10) Сыендук [EN / RU Sub] скачать через торрент бесплатно

        (скачиваний: 109)
        М.Ю. Демидова | ЕГЭ-2020. Физика. 30 типовых вариантов (2020) [PDF]

        (скачиваний: 80)
        Малышарики (2015-2019) WEB-DL [H.264 / 1080p-LQ] (серии 1-154 из 208) [Обновляемая]

        (скачиваний: 68)
        Рик и Морти / Rick and Morty (2013) BDRip [H.264 / 720p-LQ] (сезон 1, серии 1-11 из 11) Сыендук

        (скачиваний: 65)
        Рик и Морти / Rick and Morty (2013) BDRip [H.264 / 1080p] (Сезон 1, серии 1-11 из 11) Сыендук [EN Sub] скачать через торрент бесплатно

        (скачиваний: 46)
        Фиксики против Кработов (2019) WEB-DL [H.264 / 1080p-LQ]

        (скачиваний: 32)
        Свинка Пеппа / Peppa Pig (2004-2012) SATRip (1-4 сезоны: 208 серий из 209) скачать через торрент бесплатно

        (скачиваний: 28)
        Рик и Морти / Rick and Morty (2017) WEBRip [H.264 / 720p-LQ] (Сезон 3, серии 1 из ) Сыендук

        (скачиваний: 26)
        Жила-была царевна (2015-2019) WEB-DLRip [H.264 / 720p-LQ] (сезон 1, серии 1-18 из 26) [Обновляемая]

        (скачиваний: 21)