ВАЖНО! Сайт скоро заблокируют! Подписывайся на наш канал в Telegram https://t.me/torrentok и получи доступ к торрентам без ограничений!
.
Авторизация | Регистрация
bitok.xyz
Торрент скачать бесплатно Мультфильмы торрент скачать Потерянное звено / Missing Link (2019) BDRip [H.264 / 1080p] торрент скачать бесплатно


    Потерянное звено / Missing Link (2019) BDRip [H.264 / 1080p] торрент скачать бесплатно

    Дата: 8-02-2020, 05:00 | .torrent скачали: 0

    Потерянное звено / Missing Link (2019) BDRip [H.264 / 1080p]Производство: США, Канада, Laika Entertainment
    Жанр: Фэнтези, Комедия, Приключения
    Режиссер: Крис Батлер

    Описание

    Бесстрашный натуралист и исследователь Лайонел Фрост поставил перед собой задачу рассказать миру о существовании разных созданий, о которых говорят только легенды. Его новым открытием становится Линк, так называемое недостающее звено - одинокий йети, проживающий в глухих лесах Северной Америки. Фрост решает помочь новому другу найти ближайших родственников, для чего странная компания отправляется в Тибет.

    Возраст: 6+ (зрителям, достигшим 6 лет)
    Рейтинг MPAA: PG (рекомендуется присутствие родителей)
    Продолжительность: 01: 34: 25
    Качество видео: BDRip
    Перевод: Дублированный (iTunes)
    Субтитры: русские, английские
    Видео: AVC, 1920x800, 9938 Kbps
    Аудио #1: AC-3, 6 ch, 384 Kbps - русский (DUB iTunes)
    Аудио #2: AC-3, 6 ch, 640 Kbps - английский
    Общее
    Уникальный идентификатор : 252305179757953057370440708261162278934 (0xBDD035C7EED55E6887C1F0B5BD506016)
    Полное имя : G: Poteryannoe.zveno.2019.1080p.BluRay.mkv
    Формат : Matroska
    Версия формата : Version 4/Version 2
    Размер файла : 7, 23 Гбайт
    Продолжительность : 1 ч. 34 м.
    Общий поток : 10, 9 Мбит/сек
    Название фильма : Missing Link (2019)
    Дата кодирования : UTC 2020-02-07 16: 39: 55
    Программа кодирования : mkvmerge v8.3.0 (\'Over the Horizon\') 64bit
    Библиотека кодирования : libebml v1.3.1 + libmatroska v1.4.2
    Видео
    Идентификатор : 1
    Формат : AVC
    Формат/Информация : Advanced Video Codec
    Профиль формата : High@L4.1
    Параметр CABAC формата : Да
    Параметр ReFrames формата : 5 кадров
    Идентификатор кодека : V_MPEG4/ISO/AVC
    Продолжительность : 1 ч. 34 м.
    Битрейт : 9938 Кбит/сек
    Ширина : 1920 пикселей
    Высота : 800 пикселей
    Соотношение сторон : 2, 40: 1
    Режим частоты кадров : Постоянный
    Частота кадров : 23, 976 (24000/1001) кадра/сек
    Цветовое пространство : YUV
    Субдискретизация насыщенности : 4: 2: 0
    Битовая глубина : 8 бит
    Тип развёртки : Прогрессивная
    Бит/(Пиксели*Кадры) : 0.270
    Размер потока : 6, 55 Гбайт (91%)
    Библиотека кодирования : x264 core 157 r2958 57baac4
    Настройки программы : cabac=1/ref=5/deblock=1: -3: -3/analyse=0x3: 0x113/me=umh/subme=11/psy=1/psy_rd=1.00: 0.05/mixed_ref=1/me_range=32/chroma_me=1/trellis=2/8x8dct=1/cqm=0/deadzone=21, 11/fast_pskip=0/chroma_qp_offset=-3/threads=9/lookahead_threads=2/sliced_threads=0/nr=0/decimate=0/interlaced=0/bluray_compat=0/constrained_intra=0/bframes=10/b_pyramid=2/b_adapt=2/b_bias=0/direct=3/weightb=1/open_gop=0/weightp=2/keyint=240/keyint_min=23/scenecut=40/intra_refresh=0/rc_lookahead=100/rc=2pass/mbtree=0/bitrate=9938/ratetol=1.0/qcomp=0.70/qpmin=0/qpmax=69/qpstep=4/cplxblur=20.0/qblur=0.5/vbv_maxrate=50000/vbv_bufsize=62500/nal_hrd=none/filler=0/ip_ratio=1.35/pb_ratio=1.25/aq=1: 0.70
    Язык : English
    Default : Да
    Forced : Нет
    Аудио #1
    Идентификатор : 2
    Формат : AC-3
    Формат/Информация : Audio Coding 3
    Расширение режима : CM (complete main)
    Параметр Endianness формата : Big
    Идентификатор кодека : A_AC3
    Продолжительность : 1 ч. 34 м.
    Вид битрейта : Постоянный
    Битрейт : 384 Кбит/сек
    Каналы : 6 каналов
    Расположение каналов : Front: L C R, Side: L R, LFE
    Частота : 48, 0 КГц
    Частота кадров : 31, 250 кадров/сек (1536 spf)
    Битовая глубина : 16 бит
    Метод сжатия : С потерями
    Размер потока : 260 Мбайт (4%)
    Заголовок : iTunes
    Язык : Russian
    Default : Да
    Forced : Нет
    Аудио #2
    Идентификатор : 3
    Формат : AC-3
    Формат/Информация : Audio Coding 3
    Расширение режима : CM (complete main)
    Параметр Endianness формата : Big
    Идентификатор кодека : A_AC3
    Продолжительность : 1 ч. 34 м.
    Вид битрейта : Постоянный
    Битрейт : 640 Кбит/сек
    Каналы : 6 каналов
    Расположение каналов : Front: L C R, Side: L R, LFE
    Частота : 48, 0 КГц
    Частота кадров : 31, 250 кадров/сек (1536 spf)
    Битовая глубина : 16 бит
    Метод сжатия : С потерями
    Размер потока : 432 Мбайт (6%)
    Заголовок : Original
    Язык : English
    Default : Нет
    Forced : Нет
    Текст #1
    Идентификатор : 4
    Формат : UTF-8
    Идентификатор кодека : S_TEXT/UTF8
    Идентификатор кодека/Информация : UTF-8 Plain Text
    Продолжительность : 8 с. 50 мс.
    Битрейт : 248 бит/сек
    Count of elements : 5
    Размер потока : 250 байт (0%)
    Заголовок : Forced
    Язык : Russian
    Default : Да
    Forced : Нет
    Текст #2
    Идентификатор : 5
    Формат : UTF-8
    Идентификатор кодека : S_TEXT/UTF8
    Идентификатор кодека/Информация : UTF-8 Plain Text
    Продолжительность : 8 с. 50 мс.
    Битрейт : 140 бит/сек
    Count of elements : 5
    Размер потока : 141 байт (0%)
    Заголовок : Forced
    Язык : English
    Default : Нет
    Forced : Нет
    Текст #3
    Идентификатор : 6
    Формат : UTF-8
    Идентификатор кодека : S_TEXT/UTF8
    Идентификатор кодека/Информация : UTF-8 Plain Text
    Продолжительность : 1 ч. 34 м.
    Битрейт : 55 бит/сек
    Count of elements : 1280
    Размер потока : 38, 2 Кбайт (0%)
    Заголовок : Full
    Язык : English
    Default : Нет
    Forced : Нет
    Текст #4
    Идентификатор : 7
    Формат : UTF-8
    Идентификатор кодека : S_TEXT/UTF8
    Идентификатор кодека/Информация : UTF-8 Plain Text
    Продолжительность : 1 ч. 34 м.
    Битрейт : 66 бит/сек
    Count of elements : 1624
    Размер потока : 45, 7 Кбайт (0%)
    Заголовок : SDH
    Язык : English
    Default : Нет
    Forced : Нет
    Меню
    00: 00: 00.000 : en: Chapter 01
    00: 05: 12.520 : en: Chapter 02
    00: 08: 53.616 : en: Chapter 03
    00: 12: 29.206 : en: Chapter 04
    00: 15: 35.851 : en: Chapter 05
    00: 20: 18.550 : en: Chapter 06
    00: 24: 26.840 : en: Chapter 07
    00: 29: 55.126 : en: Chapter 08
    00: 33: 14.659 : en: Chapter 09
    00: 36: 40.948 : en: Chapter 10
    00: 40: 33.389 : en: Chapter 11
    00: 43: 45.164 : en: Chapter 12
    00: 47: 24.299 : en: Chapter 13
    00: 52: 50.876 : en: Chapter 14
    00: 55: 14.477 : en: Chapter 15
    00: 58: 51.903 : en: Chapter 16
    00: 59: 59.721 : en: Chapter 17
    01: 02: 54.729 : en: Chapter 18
    01: 05: 15.494 : en: Chapter 19
    01: 08: 17.176 : en: Chapter 20
    01: 11: 00.339 : en: Chapter 21
    01: 13: 20.437 : en: Chapter 22
    01: 21: 51.197 : en: Chapter 23
    01: 24: 48.625 : en: Chapter 24

    Скриншоты для ознакомления



    Все одноименные релизы в Клубе
    Время раздачи: с 11: 00 до 01: 00 (до появления первых 3-5 скачавших)

    Онлайн видео Потерянное звено


    Потерянное звено / Missing Link (2019) BDRip [H.264 / 1080p] торрент скачать бесплатно
    Рейтинг →
     (голосов: 1, оценка 3/5, голосовать можно 1 раз )

    Другие торренты по теме:

  • Потерянное звено / Missing Link (2019) BDRemux [H.264 / 1080p] [MVO]
  • Потерянное звено / Missing Link (2019) BDRemux [H.264 / 1080p] [MVO]
  • Потерянное звено / Missing Link (2019) BDRip [H.264 / 720p-LQ] [MVO]
  • Потерянное звено / Missing Link (2019) BDRip [H.264 / 1080p-LQ] [MVO]
  • Потерянное звено / Missing Link (2019) BDRip [H.264 / 1080p-LQ] [hand made 16:9]
  • Потерянное звено / Missing Link (2019) BDRip [H.264 / 720p]
  • Потерянное звено / Missing Link (2019) BDRip [H.264]


    • Комментарии (0):

      Информация

      Информация

        Посетители, находящиеся в группе Гости, не могут оставлять комментарии в данной новости.

        ↓ Меню




        Популярное

        Металионы / Metalions (2018-2019) WEB-DLRip [H.264 / 720p-LQ] (сезон 1, серии 1-52 из 52) [Обновляемая]

        (скачиваний: 11)
        Фиксики против Кработов (2019) WEB-DL [H.264 / 1080p-LQ]

        (скачиваний: 10)
        Роботы-пожарные / Fire Robo (2016) WEB-DLRip [H.264 / 720p-LQ] (сезон 1, серии 1-26 из 26) [Обновляемая]

        (скачиваний: 8)
        Фиксики против Кработов (2019) WEB-DLRip

        (скачиваний: 7)
        Жила-была царевна (2015-2019) WEB-DLRip [H.264 / 720p-LQ] (сезон 1, серии 1-18 из 26) [Обновляемая]

        (скачиваний: 7)
        Лея Уотерс | Переключение на силу. Как научиться видеть в детях сильные стороны, чтобы помочь им расцвести (2019) [EPUB]

        (скачиваний: 5)
        Kaze no Na wa Amnesia / A Wind Named Amnesia / Ветер амнезии [1990, MV] DVDRip raw

        (скачиваний: 5)
        Канакина В. П., Горецкий В. Г. Электронное приложение к учебнику «Русский язык», 2 класс (2012) [ISO] скачать через торрент бесплатно

        (скачиваний: 5)
        Александр Нилл | Воспитание свободой. Школа Саммерхилл (2020) [EPUB]

        (скачиваний: 5)
        Роберт Кийосаки | Богатый папа, бедный папа для подростков (2014) [PDF, FB2]

        (скачиваний: 5)