ВАЖНО! Сайт скоро заблокируют! Подписывайся на наш канал в Telegram https://t.me/torrentok и получи доступ к торрентам без ограничений!
.
Авторизация | Регистрация
bitok.xyz
Торрент скачать бесплатно Мультфильмы торрент скачать Маленькая мисс Дулиттл / Liliane Susewind - Ein tierisches Abenteuer (2018) WEB-DLRip [H.265] [10-bit] торрент скачать бесплатно


    Маленькая мисс Дулиттл / Liliane Susewind - Ein tierisches Abenteuer (2018) WEB-DLRip [H.265] [10-bit] торрент скачать бесплатно

    Дата: 8-02-2020, 05:00 | .torrent скачали: 1

    Маленькая мисс Дулиттл / Liliane Susewind - Ein tierisches Abenteuer (2018) WEB-DLRip [H.265] [10-bit]Производство: Германия, Dreamtool Entertainment, Velvet Films
    Жанр: фэнтези, комедия, семейный
    Режиссер: Йоахим Масаннек

    Актеры
    Малу Ляйхер, Пери Баумайстер, Том Бек, Айлин Тецель, Мерет Беккер, Кристоф Мария Хербст, Арвед Бирнбаум, Даниэль Цильман, Аарон Кисёв, Йоран Ляйхер

    Описание

    Рыжеволосая Лилиан не просто обожает животных, но и умеет понимать их язык и отвечать им. О ее невероятной способности знают только члены семьи, и они всячески оберегают тайну. Но любым тайнам в свое время всегда приходит конец, особенно если на кону стоит спасение зоопарка.

    Возраст: 6+ (зрителям, достигшим 6 лет)
    Дата мировой премьеры: 10 мая 2018
    Дата российской премьеры: 16 января 2020, Кинологистика
    Продолжительность: 01: 39: 23
    Качество видео: WEB-DLRip
    Перевод: Дублированный (iTunes)
    Субтитры: отсутствуют
    Видео: HEVC/H.265, 1024x428, 1911 Kbps
    Аудио: AC3, 6 ch, 384 Kbps | РусскийОбщее
    Уникальный идентификатор : 219902629050255907417036135507890974738 (0xA56FB4B03583E65F8F103CD0E962B012)
    Полное имя : Liliane Susewind.WEB-DLRip.HEVC.mkv
    Формат : Matroska
    Версия формата : Version 4/Version 2
    Размер файла : 1, 63 Гбайт
    Продолжительность : 1 ч. 39 м.
    Общий поток : 2341 Кбит/сек
    Название фильма : SM_DOLITTLE_WEB-DL_1080p_BLUEBIRD
    Программа кодирования : XviD4PSP 8.0.91
    Библиотека кодирования : Lavf58.20.100
    Обложка : Yes
    ErrorDetectionType : Per level 1
    Attachments : cover
    ENCODING_INFO : PNG COPY Быстрое
    Язык : und
    Видео
    Идентификатор : 1
    Формат : HEVC
    Формат/Информация : High Efficiency Video Coding
    Профиль формата : Main10@L4.1@High
    Идентификатор кодека : V_MPEGH/ISO/HEVC
    Продолжительность : 1 ч. 39 м.
    Битрейт : 1911 Кбит/сек
    Ширина : 1024 пикселя
    Высота : 428 пикселей
    Соотношение сторон : 2, 40: 1
    Режим частоты кадров : Постоянный
    Частота кадров : 24, 000 кадра/сек
    Цветовое пространство : YUV
    Субдискретизация насыщенности : 4: 2: 0
    Битовая глубина : 10 бит
    Бит/(Пиксели*Кадры) : 0.182
    Размер потока : 1, 33 Гбайт (82%)
    Заголовок : SM_DOLITTLE_WEB-DL_1080p_BLUEBIRD
    Язык : English
    Default : Да
    Forced : Нет
    Цветовой диапазон : Limited
    Основные цвета : BT.709
    Характеристики трансфера : BT.709
    Коэффициенты матрицы : BT.709
    ENCODING_INFO : H264 HEVC NVENC VBR 2000kbps HQ
    Аудио
    Идентификатор : 2
    Формат : AC-3
    Формат/Информация : Audio Coding 3
    Параметр Endianness формата : Big
    Идентификатор кодека : A_AC3
    Продолжительность : 1 ч. 39 м.
    Вид битрейта : Постоянный
    Битрейт : 384 Кбит/сек
    Каналы : 6 каналов
    Расположение каналов : Front: L C R, Side: L R, LFE
    Частота : 48, 0 КГц
    Частота кадров : 31, 250 кадров/сек (1536 SPF)
    Битовая глубина : 16 бит
    Метод сжатия : С потерями
    Размер потока : 273 Мбайт (16%)
    Заголовок : DUB DD 5.1 @ 384 kbps (iTunes)
    Язык : Russian
    ServiceKind/String : Complete Main
    Default : Да
    Forced : Нет
    ENCODING_INFO : AC3 COPY Безопасное
    Меню
    00: 00: 00.000 : : Глава 1
    00: 07: 06.791 : : Глава 2
    00: 12: 19.874 : : Глава 3
    00: 23: 12.957 : : Глава 4
    00: 30: 05.207 : : Глава 5
    00: 38: 42.915 : : Глава 6
    00: 45: 40.415 : : Глава 7
    00: 55: 10.790 : : Глава 8
    01: 03: 24.790 : : Глава 9
    01: 11: 21.372 : : Глава 10
    01: 18: 47.164 : : Глава 11
    01: 27: 48.039 : : Глава 12

    Скриншоты для ознакомления



    Все одноименные релизы в Клубе
    Время раздачи: 19 - 23 (до появления первых 3-5 скачавших)

    Онлайн видео Маленькая мисс Дулиттл


    Маленькая мисс Дулиттл / Liliane Susewind - Ein tierisches Abenteuer (2018) WEB-DLRip [H.265] [10-bit] торрент скачать бесплатно
    Рейтинг →
     (голосов: 1, оценка 3/5, голосовать можно 1 раз )

    Другие торренты по теме:

  • Маленькая мисс Маркер / Little Miss Marker (1980) DVDRip [H.264]
  • Маленькая мисс Дулиттл / Liliane Susewind - Ein tierisches Abenteuer (2018) WEB-DLRip
  • Маленькая мисс Дулиттл / Liliane Susewind - Ein tierisches Abenteuer (2018) WEB-DL [H.264 / 1080-LQ]
  • Маленькая мисс Дулиттл / Liliane Susewind - Ein tierisches Abenteuer (2018) BDRemux [H.264 / 1080i]


    • Комментарии (0):

      Информация

      Информация

        Посетители, находящиеся в группе Гости, не могут оставлять комментарии в данной новости.

        ↓ Меню




        Популярное

        Роботы-пожарные / Fire Robo (2016) WEB-DLRip [H.264 / 720p-LQ] (сезон 1, серии 1-26 из 26) [Обновляемая]

        (скачиваний: 5)
        Сергей Матвеев | Полный курс английского языка для лентяев (2016) [PDF]

        (скачиваний: 4)
        Жила-была царевна (2015-2019) WEB-DLRip [H.264 / 720p-LQ] (сезон 1, серии 1-18 из 26) [Обновляемая]

        (скачиваний: 3)
        Gekijouban KanColle | Kantai Collection Movie | Fleet Girls Collection: Movie Sequence| Коллекционная флотилия на большом экране [2016, Movie] BDrip 720p 10bit raw

        (скачиваний: 3)
        Роберт Кийосаки | Богатый папа, бедный папа для подростков (2014) [PDF, FB2]

        (скачиваний: 3)
        Серия книг | Образовательная манга (2010 - 2015) [PDF]

        (скачиваний: 3)
        Анна Зайцева, Анастасия Дубасова | Чудесный пластилин: лепим вместе с детьми (2011) [PDF]

        (скачиваний: 2)
        Королевская академия / Regal Academy (2016) SATRip [H.264] (Сезон 1, 26 серий из 26) [UKR]

        (скачиваний: 2)
        Свинка Пеппа / Peppa Pig (2004-2012) SATRip (1-4 сезоны: 208 серий из 209) скачать через торрент бесплатно

        (скачиваний: 2)
        Металионы / Metalions (2018-2019) WEB-DLRip [H.264 / 720p-LQ] (сезон 1, серии 1-52 из 52) [Обновляемая]

        (скачиваний: 2)