Подписывайся на наш канал в Telegram https://t.me/torrentok и получи доступ к торрентам без ограничений!
.
Авторизация | Регистрация
bitok.xyz
Торрент скачать бесплатно Мультфильмы торрент скачать Рождественские хроники / The Christmas Chronicles (2018) WEB-DLRip [H.265] [10-bit] торрент скачать бесплатно


    Рождественские хроники / The Christmas Chronicles (2018) WEB-DLRip [H.265] [10-bit] торрент скачать бесплатно

    Дата: 8-02-2020, 05:00 | .torrent скачали: 0

    Рождественские хроники / The Christmas Chronicles (2018) WEB-DLRip [H.265] [10-bit]Производство: США
    Жанр: фэнтези, комедия, приключения, семейный
    Режиссер: Клэй Кэйтис/Clay Kaytis

    Актеры
    Курт Рассел, Кимберли Уильямс-Пэйсли, Оливер Хадсон, Джуда Льюис, Ламорн Моррис, Дэрби Кэмп, Лорен Коллинз, Джереми Рэймонд, Мартин Роуч, Kayla Lakhani, Джефф Теравайнен, Ишан Моррис

    Описание

    В канун Рождества брат с сестрой - Кейт и Тедди Пирс - собираются заснять на видео появление Санты. Дерзкий замысел выливается в необыкновенное приключение, о котором дети не могли даже мечтать. Вместе с преданными эльфами и волшебными летающими оленями они помогают Санте спасти всеми любимый праздник.

    Премьера (мир): 22 ноября 2018
    Продолжительность: 01: 44: 27
    Качество видео: WEB-DLRip
    Перевод: Дублированный (Пифагор)
    Субтитры: Русские, английские
    Видео: HEVC/H.265, 1024x552, 1970 Kbps
    Аудио 1: AC3, 2 ch, 160 Kbps | Русский
    Аудио 2: AC3, 2 ch, 160 Kbps | АнглийскийОбщее
    Уникальный идентификатор : 230742816084211667928682840481152400352 (0xAD97732C4F9CD068037A1B7665B87BE0)
    Полное имя : The.Christmas.Chronicles.2018.WEB-DLRip.HEVC.mkv
    Формат : Matroska
    Версия формата : Version 4/Version 2
    Размер файла : 1, 70 Гбайт
    Продолжительность : 1 ч. 44 м.
    Общий поток : 2337 Кбит/сек
    Название фильма : The Christmas Chronicles (2018) | release by stalkerok
    Программа кодирования : XviD4PSP 8.0.91
    Библиотека кодирования : Lavf58.20.100
    ErrorDetectionType : Per level 1
    ENCODING_INFO : MATROSKA, WEBM MKV 1024x576 HEVC 10-bit
    Видео
    Идентификатор : 1
    Формат : HEVC
    Формат/Информация : High Efficiency Video Coding
    Профиль формата : Main10@L4.1@High
    Идентификатор кодека : V_MPEGH/ISO/HEVC
    Продолжительность : 1 ч. 44 м.
    Битрейт : 1970 Кбит/сек
    Ширина : 1024 пикселя
    Высота : 552 пикселя
    Соотношение сторон : 1, 85: 1
    Режим частоты кадров : Постоянный
    Частота кадров : 24, 000 кадра/сек
    Цветовое пространство : YUV
    Субдискретизация насыщенности : 4: 2: 0
    Битовая глубина : 10 бит
    Бит/(Пиксели*Кадры) : 0.145
    Размер потока : 1, 44 Гбайт (84%)
    Заголовок : The.Christmas.Chronicles.2018.1080p.NF.WEB-DL.DD5.1.H264-CMRG
    Default : Да
    Forced : Нет
    Цветовой диапазон : Full
    ENCODING_INFO : H264 HEVC NVENC VBR 2000kbps HQ
    Аудио #1
    Идентификатор : 2
    Формат : AC-3
    Формат/Информация : Audio Coding 3
    Параметр Endianness формата : Big
    Идентификатор кодека : A_AC3
    Продолжительность : 1 ч. 44 м.
    Вид битрейта : Постоянный
    Битрейт : 160 Кбит/сек
    Каналы : 2 канала
    Расположение каналов : Front: L R
    Частота : 48, 0 КГц
    Частота кадров : 31, 250 кадров/сек (1536 SPF)
    Битовая глубина : 16 бит
    Метод сжатия : С потерями
    Размер потока : 120 Мбайт (7%)
    Заголовок : Russian
    Язык : Russian
    ServiceKind/String : Complete Main
    Default : Да
    Forced : Нет
    ENCODING_INFO : AC3 AC3 CBR 160kbps
    Аудио #2
    Идентификатор : 3
    Формат : AC-3
    Формат/Информация : Audio Coding 3
    Параметр Endianness формата : Big
    Идентификатор кодека : A_AC3
    Продолжительность : 1 ч. 44 м.
    Вид битрейта : Постоянный
    Битрейт : 160 Кбит/сек
    Каналы : 2 канала
    Расположение каналов : Front: L R
    Частота : 48, 0 КГц
    Частота кадров : 31, 250 кадров/сек (1536 SPF)
    Битовая глубина : 16 бит
    Метод сжатия : С потерями
    Размер потока : 120 Мбайт (7%)
    Заголовок : English
    Язык : English
    ServiceKind/String : Complete Main
    Default : Нет
    Forced : Нет
    ENCODING_INFO : AC3 AC3 CBR 160kbps
    Текст #1
    Идентификатор : 4
    Формат : UTF-8
    Идентификатор кодека : S_TEXT/UTF8
    Идентификатор кодека/Информация : UTF-8 Plain Text
    Заголовок : Russian Forced
    Язык : Russian
    Default : Да
    Forced : Нет
    ENCODING_INFO : SUBRIP COPY Быстрое
    Текст #2
    Идентификатор : 5
    Формат : UTF-8
    Идентификатор кодека : S_TEXT/UTF8
    Идентификатор кодека/Информация : UTF-8 Plain Text
    Заголовок : Russian Full
    Язык : Russian
    Default : Нет
    Forced : Нет
    ENCODING_INFO : SUBRIP COPY Быстрое
    Текст #3
    Идентификатор : 6
    Формат : UTF-8
    Идентификатор кодека : S_TEXT/UTF8
    Идентификатор кодека/Информация : UTF-8 Plain Text
    Заголовок : English SDH
    Язык : English
    Default : Нет
    Forced : Нет
    ENCODING_INFO : SUBRIP COPY Быстрое
    Текст #4
    Идентификатор : 7
    Формат : UTF-8
    Идентификатор кодека : S_TEXT/UTF8
    Идентификатор кодека/Информация : UTF-8 Plain Text
    Заголовок : German Full
    Язык : German
    Default : Нет
    Forced : Нет
    ENCODING_INFO : SUBRIP COPY Быстрое

    Скриншоты для ознакомления



    Все одноименные релизы в Клубе
    Время раздачи: 19 - 23 (до появления первых 3-5 скачавших)

    Онлайн видео Рождественские хроники


    Рождественские хроники / The Christmas Chronicles (2018) WEB-DLRip [H.265] [10-bit] торрент скачать бесплатно
    Рейтинг →
     (голосов: 1, оценка 4/5, голосовать можно 1 раз )

    Другие торренты по теме:

  • Рождественские хроники / The Christmas Chronicles (2018) WEB-DL [H.264 / 1080p-LQ]
  • Рождественские хроники / The Christmas Chronicles (2018) WEB-DLRip [H.264]
  • Рождественские хроники / The Christmas Chronicles (2018) WEB-DL [1080p] ATV
  • Рождественские хроники / The Christmas Chronicles (2018) WEB-DLRip [H.265 / 2160p] [4K, HDR, 10-bit]
  • Рождественские хроники / The Christmas Chronicles (2018) WEB-DLRip [480p] iPod
  • Рождественские хроники / The Christmas Chronicles (2018) WEB-DLRip [576p] iPad
  • Рождественские хроники / The Christmas Chronicles (2018) WEB-DLRip [H.264] [MP4|1280x720]
  • Рождественские хроники / The Christmas Chronicles (2018) WEBRip [EN / RU, EN Sub]


    • Комментарии (0):

      Информация

      Информация

        Посетители, находящиеся в группе Гости, не могут оставлять комментарии в данной новости.

        ↓ Меню




        Популярное

        Жила-была царевна (2015-2019) WEB-DLRip [H.264 / 720p-LQ] (сезон 1, серии 1-18 из 26) [Обновляемая]

        (скачиваний: 3)
        Сергей Матвеев | Полный курс английского языка для лентяев (2016) [PDF]

        (скачиваний: 3)
        Серия книг | Образовательная манга (2010 - 2015) [PDF]

        (скачиваний: 3)
        Gekijouban KanColle | Kantai Collection Movie | Fleet Girls Collection: Movie Sequence| Коллекционная флотилия на большом экране [2016, Movie] BDrip 720p 10bit raw

        (скачиваний: 3)
        Свинка Пеппа / Peppa Pig (2004-2012) SATRip (1-4 сезоны: 208 серий из 209) скачать через торрент бесплатно

        (скачиваний: 2)
        Соман Чайнани | Цикл: «Школа Добра и Зла» [5 книг] (2018-2019) [FB2]

        (скачиваний: 1)
        Ева Ибботсон | Агентство «Фантом в каждый дом» (2018) [FB2, EPUB]

        (скачиваний: 1)
        Teito Monogatari / Doomed Megalopolis / Столичная история [1991, OVA, 4 ep.] DVDRip raw +eng

        (скачиваний: 1)
        Эндрю Лумис | Искусное рисование (2015) [PDF]

        (скачиваний: 1)
        Джим Роджерс | Сделайте ваших детей успешными (2013) [PDF, EPUB] скачать через торрент бесплатно

        (скачиваний: 1)