ВАЖНО! Сайт скоро заблокируют! Подписывайся на наш канал в Telegram https://t.me/torrentok и получи доступ к торрентам без ограничений!
.
Авторизация | Регистрация
bitok.xyz
Торрент скачать бесплатно Мультфильмы торрент скачать Трое снизу: Истории Аркадии / 3Below: Tales of Arcadia (2018) WEBRip [H.264 / 720p-LQ] (сезон 1, серии 1-13 из 13) HDRezka Studio торрент скачать бесплатно


    Трое снизу: Истории Аркадии / 3Below: Tales of Arcadia (2018) WEBRip [H.264 / 720p-LQ] (сезон 1, серии 1-13 из 13) HDRezka Studio торрент скачать бесплатно

    Дата: 8-02-2020, 05:00 | .torrent скачали: 1

    Трое снизу: Истории Аркадии / 3Below: Tales of Arcadia (2018) WEBRip [H.264 / 720p-LQ] (сезон 1, серии 1-13 из 13) HDRezka StudioПроизводство: США/Netflix, DreamWorks Animation, Double Dare You (DDY)
    Жанр: Фантастика, фэнтези, боевик, комедия, приключения, семейный
    Режиссер: Йохана Матте, Илэйн Боган, Эндрю Л. Шмидт

    Актеры
    Татьяна Маслани, Диего Луна, Ник Офферман, Фрэнк Уэлкер, Стив Альтерман, Митч Картер, Гленн Клоуз, Коул Сэнд, Джули Фоллс, Алон Абутбул

    Описание

    Инопланетные подростки, члены королевской семьи, спасаясь от захватившего их родную планету диктатора, терпят крушение в Аркадии. Вместе с верным телохранителем они вынуждены скрываться от межгалактических охотников за головами и выживать под видом простых школьников.

    Продолжительность: ~00: 23: 00 серия
    Качество видео: WEBRip
    Перевод: Многоголосый профессиональный (HDRezka Studio)
    Субтитры: Отсутствуют
    Видео: AVC/H.264, 1280x720 (16: 9), ~3100-6655 Kbps
    Аудио: AC3, 2 ch, 192 Kbps - русский
    Общее
    Уникальный идентификатор : 208836252058703860239229543655087711265 (0x9D1C662D78CD255C9B9861C6CCCEA421)
    Полное имя : G: 3Below.Tales.of.Arcadia.2018.S013Below.Tales.of.Arcadia.S01E01.WEBRip.720p.mkv
    Формат : Matroska
    Версия формата : Version 4
    Размер файла : 1, 12 Гбайт
    Продолжительность : 23 м. 26 с.
    Режим общего битрейта : Переменный
    Общий поток : 6850 Кбит/сек
    Дата кодирования : UTC 2020-02-05 12: 36: 51
    Программа кодирования : mkvmerge v28.2.0 (\'The Awakening\') 64-bit
    Библиотека кодирования : libebml v1.3.6 + libmatroska v1.4.9
    Видео
    Идентификатор : 1
    Формат : AVC
    Формат/Информация : Advanced Video Codec
    Профиль формата : High@L4.1
    Настройки формата : CABAC/1 Ref Frames
    Параметр CABAC формата : Да
    Параметр RefFrames формата : 1 кадр
    Идентификатор кодека : V_MPEG4/ISO/AVC
    Продолжительность : 23 м. 26 с.
    Вид битрейта : Переменный
    Битрейт : 6657 Кбит/сек
    Максимальный битрейт : 2000 Кбит/сек
    Ширина : 1280 пикселей
    Высота : 720 пикселей
    Соотношение сторон : 16: 9
    Режим частоты кадров : Постоянный
    Частота кадров : 23, 976 (24000/1001) кадра/сек
    Цветовое пространство : YUV
    Субдискретизация насыщенности : 4: 2: 0
    Битовая глубина : 8 бит
    Тип развёртки : Прогрессивная
    Бит/(Пиксели*Кадры) : 0.301
    Размер потока : 1, 09 Гбайт (97%)
    Default : Да
    Forced : Нет
    Аудио
    Идентификатор : 2
    Формат : AC-3
    Формат/Информация : Audio Coding 3
    Коммерческое название : Dolby Digital
    Идентификатор кодека : A_AC3
    Продолжительность : 23 м. 26 с.
    Вид битрейта : Постоянный
    Битрейт : 192 Кбит/сек
    Каналы : 2 канала
    ChannelLayout : L R
    Частота : 48, 0 КГц
    Частота кадров : 31, 250 кадров/сек (1536 SPF)
    Метод сжатия : С потерями
    Размер потока : 32, 2 Мбайт (3%)
    Язык : Russian
    ServiceKind/String : Complete Main
    Default : Да
    Forced : Нет

    Скриншоты для ознакомления



    Все одноименные релизы в Клубе
    Время раздачи: 24/7 (круглосуточно) (до появления первых 3-5 скачавших)

    Онлайн видео Трое снизу: Истории Аркадии


    Трое снизу: Истории Аркадии / 3Below: Tales of Arcadia (2018) WEBRip [H.264 / 720p-LQ] (сезон 1, серии 1-13 из 13) HDRezka Studio торрент скачать бесплатно
    Рейтинг →
     (голосов: 1, оценка 4/5, голосовать можно 1 раз )

    Другие торренты по теме:

  • Трое снизу: Истории Аркадии / 3Below: Tales of Arcadia (2018) WEB-DL [H.264 / 720p] (1 сезон, серии 1-4 из 13) [MVO] [AD] (обновляемая)


    • Комментарии (0):

      Информация

      Информация

        Посетители, находящиеся в группе Гости, не могут оставлять комментарии в данной новости.

        ↓ Меню




        Популярное

        Металионы / Metalions (2018-2019) WEB-DLRip [H.264 / 720p-LQ] (сезон 1, серии 1-52 из 52) [Обновляемая]

        (скачиваний: 11)
        Фиксики против Кработов (2019) WEB-DL [H.264 / 1080p-LQ]

        (скачиваний: 10)
        Роботы-пожарные / Fire Robo (2016) WEB-DLRip [H.264 / 720p-LQ] (сезон 1, серии 1-26 из 26) [Обновляемая]

        (скачиваний: 8)
        Фиксики против Кработов (2019) WEB-DLRip

        (скачиваний: 7)
        Жила-была царевна (2015-2019) WEB-DLRip [H.264 / 720p-LQ] (сезон 1, серии 1-18 из 26) [Обновляемая]

        (скачиваний: 7)
        Лея Уотерс | Переключение на силу. Как научиться видеть в детях сильные стороны, чтобы помочь им расцвести (2019) [EPUB]

        (скачиваний: 5)
        Kaze no Na wa Amnesia / A Wind Named Amnesia / Ветер амнезии [1990, MV] DVDRip raw

        (скачиваний: 5)
        Канакина В. П., Горецкий В. Г. Электронное приложение к учебнику «Русский язык», 2 класс (2012) [ISO] скачать через торрент бесплатно

        (скачиваний: 5)
        Александр Нилл | Воспитание свободой. Школа Саммерхилл (2020) [EPUB]

        (скачиваний: 5)
        Роберт Кийосаки | Богатый папа, бедный папа для подростков (2014) [PDF, FB2]

        (скачиваний: 5)