ВАЖНО! Сайт скоро заблокируют! Подписывайся на наш канал в Telegram https://t.me/torrentok и получи доступ к торрентам без ограничений!
.
Авторизация | Регистрация
bitok.xyz
Торрент скачать бесплатно Мультфильмы торрент скачать Белая змея / Baishe: Yuanqi / White Snake (2019) BDRemux [H.264 / 1080p] [DVO] торрент скачать бесплатно


    Белая змея / Baishe: Yuanqi / White Snake (2019) BDRemux [H.264 / 1080p] [DVO] торрент скачать бесплатно

    Дата: 8-02-2020, 05:00 | .torrent скачали: 0

    Белая змея / Baishe: Yuanqi / White Snake (2019) BDRemux [H.264 / 1080p] [DVO]Производство: Китай, США, Light Chaser Animation Studios
    Жанр: Мультфильм, мелодрама, фэнтези
    Режиссер: Амп Вон, Чжао Цзи

    Описание

    Династия Тан подходит к своему логическому завершению, но перед тем, как полностью растворится и стать лишь отметкой в истории, народный правитель решает отдать приказ всем солдатам своего королевства – поймать всех змей, которые только возможно найти и убить их. Белая королевская змея, обитающая в прибрежных лесах, узнает об этом и отправляется в путешествие, чтобы убить управителя и отомстить за своих собратьев и сестер. По дороге она попадает в засаду и теряет память, но ее удается спасти одному бедному парню, которого арестовали за воровство. В облике обычной девушки она предстала перед ним и между ними вспыхнули чувства. Он пообещал помочь ей, вспомнить все, и они отправились в путешествие. В ходе их приключений, чувства развивались, память постепенно возвращалась, а любовь переросла в нечто куда более мощное и сложное. Девушка змея смогла вспомнить свое предназначение, а любимый был с ней рядом, до самого конца.

    Дата мировой премьеры: 11 января 2019
    Продолжительность: 01: 39: 13
    Качество видео: BDRemux
    Перевод: Двуголосый любительский (GrandStudio)
    Субтитры: Английские
    Видео: AVC/H.264, 1920x1080р, ~33.1 Мbps
    Аудио #1: AC3, 2 ch, 192 kbps - Русский DVO (GrandStudio)
    Аудио #2: DTS-HD MA, 6 ch, 2099 kbps - Английский (Original)
    General
    Unique ID : 95659540630286129248592781789723523732 (0x47F75B7D08BD51C832234DCECB4A7A94)
    Complete name : F: Новая папка (18)White.Snake.2019.BDREMUX 1080p.mkv
    Format : Matroska
    Format version : Version 4
    File size : 24.5 GiB
    Duration : 1 h 39 min
    Overall bit rate mode : Variable
    Overall bit rate : 35.4 Mb/s
    Movie name : White.Snake.2019.BDREMUX 1080p
    Encoded date : UTC 2020-02-06 16: 08: 29
    Writing application : mkvmerge v29.0.0 (\'Like It Or Not\') 64-bit
    Writing library : libebml v1.3.6 + libmatroska v1.4.9
    Cover : Yes
    Attachments : small_cover.jpg/small_cover_land.jpg/cover.jpg/cover_land.jpg
    Video
    ID : 1
    Format : AVC
    Format/Info : Advanced Video Codec
    Format profile : High@L4.1
    Format settings : CABAC/4 Ref Frames
    Format settings, CABAC : Yes
    Format settings, RefFrames : 4 frames
    Codec ID : V_MPEG4/ISO/AVC
    Duration : 1 h 39 min
    Bit rate mode : Variable
    Bit rate : 33.1 Mb/s
    Maximum bit rate : 35.0 Mb/s
    Width : 1 920 pixels
    Height : 1 080 pixels
    Display aspect ratio : 16: 9
    Frame rate mode : Constant
    Frame rate : 24.000 FPS
    Color space : YUV
    Chroma subsampling : 4: 2: 0
    Bit depth : 8 bits
    Scan type : Progressive
    Bits/(Pixel*Frame) : 0.664
    Stream size : 22.9 GiB (94%)
    Title : White.Snake.2019.BDREMUX 1080p
    Language : English
    Default : No
    Forced : No
    Audio #1
    ID : 2
    Format : AC-3
    Format/Info : Audio Coding 3
    Commercial name : Dolby Digital
    Codec ID : A_AC3
    Duration : 1 h 39 min
    Bit rate mode : Constant
    Bit rate : 192 kb/s
    Channel(s) : 2 channels
    Channel layout : L R
    Sampling rate : 48.0 kHz
    Frame rate : 31.250 FPS (1536 SPF)
    Bit depth : 16 bits
    Compression mode : Lossy
    Stream size : 136 MiB (1%)
    Title : DVO (GrandStudio)
    Language : Russian
    Service kind : Complete Main
    Default : Yes
    Forced : No
    Audio #2
    ID : 3
    Format : DTS XLL
    Format/Info : Digital Theater Systems
    Commercial name : DTS-HD Master Audio
    Codec ID : A_DTS
    Duration : 1 h 39 min
    Bit rate mode : Variable
    Bit rate : 2 099 kb/s
    Channel(s) : 6 channels
    Channel layout : C L R Ls Rs LFE
    Sampling rate : 48.0 kHz
    Frame rate : 93.750 FPS (512 SPF)
    Bit depth : 24 bits
    Compression mode : Lossless
    Stream size : 1.45 GiB (6%)
    Title : English
    Language : English
    Default : No
    Forced : No
    Text
    ID : 4
    Format : UTF-8
    Codec ID : S_TEXT/UTF8
    Codec ID/Info : UTF-8 Plain Text
    Duration : 1 h 35 min
    Bit rate : 35 b/s
    Count of elements : 939
    Stream size : 24.9 KiB (0%)
    Title : English-SRT
    Language : English
    Default : No
    Forced : No
    Menu
    00: 00: 00.000 : en: Chapter 01
    00: 04: 29.625 : en: Chapter 02
    00: 10: 26.708 : en: Chapter 03
    00: 16: 52.791 : en: Chapter 04
    00: 22: 43.541 : en: Chapter 05
    00: 27: 42.250 : en: Chapter 06
    00: 32: 41.208 : en: Chapter 07
    00: 38: 10.041 : en: Chapter 08
    00: 44: 17.375 : en: Chapter 09
    00: 49: 38.125 : en: Chapter 10
    00: 54: 35.500 : en: Chapter 11
    00: 59: 18.791 : en: Chapter 12
    01: 04: 12.791 : en: Chapter 13
    01: 08: 58.958 : en: Chapter 14
    01: 15: 38.166 : en: Chapter 15
    01: 20: 22.041 : en: Chapter 16
    01: 27: 52.916 : en: Chapter 17
    01: 31: 59.583 : en: Chapter 18

    Скриншоты для ознакомления



    Все одноименные релизы в Клубе
    Время раздачи: до появления первых 3-5 скачавших (до появления первых 3-5 скачавших)

    Онлайн видео Белая змея


    Белая змея / Baishe: Yuanqi / White Snake (2019) BDRemux [H.264 / 1080p] [DVO] торрент скачать бесплатно
    Рейтинг →
     (голосов: 1, оценка 3/5, голосовать можно 1 раз )

    Другие торренты по теме:

  • Белая змея / Bai She: Yuan Qi / White Snake (2019) BDRip [H.265 / 1080p-LQ] [10-bit] [DVO]


    • Комментарии (0):

      Информация

      Информация

        Посетители, находящиеся в группе Гости, не могут оставлять комментарии в данной новости.

        ↓ Меню




        Популярное

        Роботы-пожарные / Fire Robo (2016) WEB-DLRip [H.264 / 720p-LQ] (сезон 1, серии 1-26 из 26) [Обновляемая]

        (скачиваний: 5)
        Сергей Матвеев | Полный курс английского языка для лентяев (2016) [PDF]

        (скачиваний: 4)
        Жила-была царевна (2015-2019) WEB-DLRip [H.264 / 720p-LQ] (сезон 1, серии 1-18 из 26) [Обновляемая]

        (скачиваний: 3)
        Gekijouban KanColle | Kantai Collection Movie | Fleet Girls Collection: Movie Sequence| Коллекционная флотилия на большом экране [2016, Movie] BDrip 720p 10bit raw

        (скачиваний: 3)
        Роберт Кийосаки | Богатый папа, бедный папа для подростков (2014) [PDF, FB2]

        (скачиваний: 3)
        Серия книг | Образовательная манга (2010 - 2015) [PDF]

        (скачиваний: 3)
        Анна Зайцева, Анастасия Дубасова | Чудесный пластилин: лепим вместе с детьми (2011) [PDF]

        (скачиваний: 2)
        Королевская академия / Regal Academy (2016) SATRip [H.264] (Сезон 1, 26 серий из 26) [UKR]

        (скачиваний: 2)
        Свинка Пеппа / Peppa Pig (2004-2012) SATRip (1-4 сезоны: 208 серий из 209) скачать через торрент бесплатно

        (скачиваний: 2)
        Металионы / Metalions (2018-2019) WEB-DLRip [H.264 / 720p-LQ] (сезон 1, серии 1-52 из 52) [Обновляемая]

        (скачиваний: 2)