Подписывайся на наш канал в Telegram https://t.me/torrentok и получи доступ к торрентам без ограничений!
.
Авторизация | Регистрация
bitok.xyz
Торрент скачать бесплатно Мультфильмы торрент скачать Иван Царевич и Серый Волк 4 (2019) WEB-DLRip [H.264 / 1080p] [PR] торрент скачать бесплатно


    Иван Царевич и Серый Волк 4 (2019) WEB-DLRip [H.264 / 1080p] [PR] торрент скачать бесплатно

    Дата: 9-02-2020, 05:00 | .torrent скачали: 1

    Иван Царевич и Серый Волк 4 (2019) WEB-DLRip [H.264 / 1080p] [PR]Производство: Россия/Кинокомпания CTB, Анимационная студия Мельница
    Жанр: мультфильм, приключения, семейный
    Режиссер: Дарина Шмидт

    Описание

    Зима в этом году в тридевятом царстве случилась особенно долгая и холодная. Прямо, как в прошлом году. И как в позапрошлом. Но, вот, пришла весна. Точнее — почти пришла. С вьюгой, морозами и снегом. Как обычно. И совсем было загрустили наши герои — Иван, Василиса, Серый Волк и Царь-батюшка, если бы вместе с почти-весной, не пришла новость — в Трисемнадцатом царстве пройдет ежегодный всесказочный конкурс песни. В прошлом году там победил хомяк Жорж, а чей голос окажется круче на этот раз? Царь решил, что Тридевятое царство будет представлять Кот-ученый. Не один все же мультфильм прошли вместе, да и все равно он про книги забыл, орет, точнее поет целыми днями на крышах, как и положено коту в марте. И, конечно, вся компания во главе с Иваном и Волком отправляется поддержать пушистого певца. Ведь свои нужны рядом. А то шоу-бизнес — настоящий серпентарий, и кто знает, какие темные силы стоят за коварными соперниками и их стремлением стать звездой.

    Возраст: 6+ (зрителям, достигшим 6 лет)
    Дата российской премьеры: 26 декабря 2019, Наше Кино
    Релиз от: Astral Projection
    Продолжительность: 01: 28: 00
    Качество видео: WEB-DLRip
    Субтитры: Отсутсвуют
    Видео: AVC/H.264, 1920x1080, ~9184 Kbps
    Аудио: AC3, 2 ch, 320 Kbps
    Format : Matroska
    Format version : Version 4
    File size : 5.83 GiB
    Duration : 1 h 27 min
    Overall bit rate : 9 506 kb/s
    Encoded date : UTC 2020-02-08 18: 09: 25
    Writing application : mkvmerge v43.0.0 (\'The Quartermaster\') 64-bit
    Writing library : libebml v1.3.10 + libmatroska v1.5.2
    Video
    ID : 1
    Format : AVC
    Format/Info : Advanced Video Codec
    Format profile : Baseline@L4
    Format settings : 1 Ref Frames
    Format settings, CABAC : No
    Format settings, Reference frames : 1 frame
    Format settings, GOP : M=1, N=12
    Codec ID : V_MPEG4/ISO/AVC
    Duration : 1 h 27 min
    Bit rate : 9 184 kb/s
    Width : 1 920 pixels
    Height : 1 080 pixels
    Display aspect ratio : 16: 9
    Frame rate mode : Variable
    Frame rate : 29.265 FPS
    Color space : YUV
    Chroma subsampling : 4: 2: 0
    Bit depth : 8 bits
    Scan type : Progressive
    Bits/(Pixel*Frame) : 0.151
    Stream size : 5.63 GiB (97%)
    Language : Russian
    Default : Yes
    Forced : No
    Audio
    ID : 2
    Format : AC-3
    Format/Info : Audio Coding 3
    Commercial name : Dolby Digital
    Codec ID : A_AC3
    Duration : 1 h 27 min
    Bit rate mode : Constant
    Bit rate : 320 kb/s
    Channel(s) : 2 channels
    Channel layout : L R
    Sampling rate : 48.0 kHz
    Frame rate : 31.250 FPS (1536 SPF)
    Compression mode : Lossy
    Delay relative to video : 4 ms
    Stream size : 201 MiB (3%)
    Language : Russian
    Service kind : Complete Main
    Default : Yes
    Forced : No

    Скриншоты для ознакомления



    Все одноименные релизы в Клубе
    Время раздачи: с 10: 00 до 2: 30 (до появления первых 3-5 скачавших)

    Онлайн видео Иван Царевич и Серый Волк 4 (2019) WEB-DLRip [H.264


    Иван Царевич и Серый Волк 4 (2019) WEB-DLRip [H.264 / 1080p] [PR] торрент скачать бесплатно
    Рейтинг →
     (голосов: 1, оценка 4/5, голосовать можно 1 раз )

    Другие торренты по теме:

  • Иван Царевич и Серый Волк 3 (2015) CamRip скачать через торрент бесплатно
  • Иван Царевич и Серый Волк 3 (2015) WEB-DLRip
  • Иван Царевич и Серый Волк 3 (2015) WEB-DL [H.264 / 1080p-LQ]
  • Иван Царевич и Серый Волк 3 (2015) WEB-DLRip [H.264]
  • Иван Царевич и Серый Волк 3 (2015) WEB-DL [H.264 / 720p-LQ]
  • Иван Царевич и Серый Волк 3 (2015) WEB-DL [H.264 / 1080p-LQ]
  • Иван Царевич и Серый Волк 3 (2015) WEB-DLRip
  • Иван Царевич и Серый Волк 3 (2015) WEB-DL [1080p] ATV


    • Комментарии (0):

      Информация

      Информация

        Посетители, находящиеся в группе Гости, не могут оставлять комментарии в данной новости.