ВАЖНО! Сайт скоро заблокируют! Подписывайся на наш канал в Telegram https://t.me/torrentok и получи доступ к торрентам без ограничений!
.
Авторизация | Регистрация
bitok.xyz
Торрент скачать бесплатно Мультфильмы торрент скачать Зомбиллениум / Zombillenium (2017) BDRip [H.264 / 1080p-LQ] [PR] торрент скачать бесплатно


    Зомбиллениум / Zombillenium (2017) BDRip [H.264 / 1080p-LQ] [PR] торрент скачать бесплатно

    Дата: 9-02-2020, 05:00 | .torrent скачали: 2

    Зомбиллениум / Zombillenium (2017) BDRip [H.264 / 1080p-LQ] [PR]Производство: Франция, Бельгия/Belvision, Dupuis EditionAudiovisuel, Universal Pictures...
    Жанр: Фэнтези, Детский, Комедия, Приключения
    Режиссер: Артур де Пинс, Алексис Дюкор

    Описание

    Зомбиллениум — тематический парк, единственное место на земле, где настоящие зомби могут быть на виду. Когда Гектор, человек, грозит раскрыть истинную сущность сотрудников, начальство парка вынуждено принять его на работу. Чтобы увидеть свою дочь, Гектору придётся убежать от своих сотрудников — зомби и оборотней.

    Продолжительность: 01: 20: 15
    Качество видео: BDRip
    Перевод: Многоголосый закадровый, профессиональный (КОЛОБОК)
    Субтитры: Английские (PGS)
    Видео: AVC/H.264, 1920x1080, ~4595 Kbps
    Аудио 1: AAC, 2 ch, 132 Kbps, Русский DUB
    Аудио 2: AAC, 6 ch, 328 Kbps, Французский
    Общее
    Уникальный идентификатор : 61084483773850415289848523532809078871 (0x2DF47192A30310EF14B0D03403E90857)
    Полное имя : F: МультфильмыЗомбиллениум.mkv
    Формат : Matroska
    Версия формата : Version 4
    Размер файла : 2, 85 Гбайт
    Продолжительность : 1 ч. 20 м.
    Общий поток : 5079 Кбит/сек
    Дата кодирования : UTC 2020-02-07 14: 45: 46
    Программа кодирования : mkvmerge v35.0.0 (\'All The Love In The World\') 64-bit
    Библиотека кодирования : libebml v1.3.9 + libmatroska v1.5.2
    Writing frontend : StaxRip v2.0.2.4
    Видео
    Идентификатор : 1
    Формат : AVC
    Формат/Информация : Advanced Video Codec
    Профиль формата : Main@L4
    Настройки формата : CABAC/3 Ref Frames
    Параметр CABAC формата : Да
    Параметр RefFrames формата : 3 кадра
    Идентификатор кодека : V_MPEG4/ISO/AVC
    Продолжительность : 1 ч. 20 м.
    Битрейт : 4595 Кбит/сек
    Ширина : 1920 пикселей
    Высота : 1080 пикселей
    Соотношение сторон : 16: 9
    Режим частоты кадров : Постоянный
    Частота кадров : 23, 976 (24000/1001) кадра/сек
    Цветовое пространство : YUV
    Субдискретизация насыщенности : 4: 2: 0
    Битовая глубина : 8 бит
    Тип развёртки : Прогрессивная
    Бит/(Пиксели*Кадры) : 0.092
    Размер потока : 2, 58 Гбайт (90%)
    Default : Да
    Forced : Нет
    Цветовой диапазон : Limited
    Основные цвета : BT.709
    Характеристики трансфера : BT.709
    Коэффициенты матрицы : BT.709
    Аудио #1
    Идентификатор : 2
    Формат : AAC LC
    Формат/Информация : Advanced Audio Codec Low Complexity
    Идентификатор кодека : A_AAC-2
    Продолжительность : 1 ч. 20 м.
    Битрейт : 132 Кбит/сек
    Каналы : 2 канала
    Channel layout : L R
    Частота : 48, 0 КГц
    Частота кадров : 46, 875 кадров/сек (1024 SPF)
    Метод сжатия : С потерями
    Задержка видео : 9 мс.
    Размер потока : 77, 4 Мбайт (3%)
    Язык : Russian
    Default : Нет
    Forced : Нет
    Аудио #2
    Идентификатор : 3
    Формат : AAC LC
    Формат/Информация : Advanced Audio Codec Low Complexity
    Идентификатор кодека : A_AAC-2
    Продолжительность : 1 ч. 20 м.
    Битрейт : 328 Кбит/сек
    Каналы : 6 каналов
    Channel layout : C L R Ls Rs LFE
    Частота : 48, 0 КГц
    Частота кадров : 46, 875 кадров/сек (1024 SPF)
    Метод сжатия : С потерями
    Задержка видео : 9 мс.
    Размер потока : 188 Мбайт (6%)
    Язык : French
    Default : Нет
    Forced : Нет
    Текст
    Идентификатор : 4
    Формат : PGS
    Режим смешивания : zlib
    Идентификатор кодека : S_HDMV/PGS
    Идентификатор кодека/Информация : Picture based subtitle format used on BDs/HD-DVDs
    Продолжительность : 1 ч. 14 м.
    Битрейт : 46, 7 Кбит/сек
    ElementCount : 1856
    Размер потока : 25, 0 Мбайт (1%)
    Язык : English
    Default : Нет
    Forced : Нет


    Онлайн видео Зомбиллениум


    Зомбиллениум / Zombillenium (2017) BDRip [H.264 / 1080p-LQ] [PR] торрент скачать бесплатно
    Рейтинг →
     (голосов: 1, оценка 5/5, голосовать можно 1 раз )

    Другие торренты по теме:

  • Зомбиллениум / Zombillenium (2017) BDRemux 3D [H.264 / 1080p] [ISO]


    • Комментарии (0):

      Информация

      Информация

        Посетители, находящиеся в группе Гости, не могут оставлять комментарии в данной новости.

        ↓ Меню




        Популярное

        Роботы-пожарные / Fire Robo (2016) WEB-DLRip [H.264 / 720p-LQ] (сезон 1, серии 1-26 из 26) [Обновляемая]

        (скачиваний: 6)
        Лея Уотерс | Переключение на силу. Как научиться видеть в детях сильные стороны, чтобы помочь им расцвести (2019) [EPUB]

        (скачиваний: 5)
        Сергей Матвеев | Полный курс английского языка для лентяев (2016) [PDF]

        (скачиваний: 5)
        Жила-была царевна (2015-2019) WEB-DLRip [H.264 / 720p-LQ] (сезон 1, серии 1-18 из 26) [Обновляемая]

        (скачиваний: 4)
        Металионы / Metalions (2018-2019) WEB-DLRip [H.264 / 720p-LQ] (сезон 1, серии 1-52 из 52) [Обновляемая]

        (скачиваний: 4)
        Алексей Марков | Хулиганская экономика. Финансовые рынки для хулиганов и их родителей (2019) [EPUB]

        (скачиваний: 4)
        Серия книг | Образовательная манга (2010 - 2015) [PDF]

        (скачиваний: 4)
        Александр Нилл | Воспитание свободой. Школа Саммерхилл (2020) [EPUB]

        (скачиваний: 4)
        Мариэтта Чудакова | Рассказы про Россию. 1861—1922 (2020) [EPUB]

        (скачиваний: 3)
        Алена Зюрикова | Дзен в декрете, или Как не сойти с ума от счастья. Режим, сон, воспитание и хорошее настроение (2020) [EPUB]

        (скачиваний: 3)