Подписывайся на наш канал в Telegram https://t.me/torrentok и получи доступ к торрентам без ограничений!
.
Авторизация | Регистрация
bitok.xyz
Торрент скачать бесплатно Мультфильмы торрент скачать Стеклянная гармоника (1968) WEBRip [H.264 / 1080p-LQ] [PR] торрент скачать бесплатно


    Стеклянная гармоника (1968) WEBRip [H.264 / 1080p-LQ] [PR] торрент скачать бесплатно

    Дата: 9-02-2020, 05:00 | .torrent скачали: 0

    Стеклянная гармоника (1968) WEBRip [H.264 / 1080p-LQ] [PR]Производство: СССР/Союзмультфильм
    Жанр: Короткометражный, рисованная анимация
    Режиссер: Андрей Хржановский

    Актеры
    Георгий Вицин, Борис Оленин, Геннадий Дудник, Елена Понсова, Тамара Дмитриева, Леонид Пирогов, Михаил Еремеев, Клементина Ростовцева, Сергей Мартинсон, Григорий Шпигель

    Описание

    О том, как власть и алчность растлевают людей и о духовном возрождении, которое приносит Искусство.

    Возраст: 0+ (для любой зрительской аудитории)
    Продолжительность: 00: 20: 30
    Качество видео: WEBRip
    Субтитры: Отсутствуют
    Видео: AVC/H.264, 1920x1080 (16: 9), ~5120 Kbps
    Аудио: AC3, 2 ch, 192 Kbps
    Общее
    Уникальный идентификатор : 47240598240372640426564825777649140038 (0x238A35517512EC09893E70976D2AC146)
    Полное имя : F: Стеклянная гармоника (1968).mkv
    Формат : Matroska
    Версия формата : Version 4
    Размер файла : 780 Мбайт
    Продолжительность : 20 м. 31 с.
    Общий поток : 5316 Кбит/сек
    Программа кодирования : Lavf58.20.100
    Библиотека кодирования : Lavf58.20.100
    ErrorDetectionType : Per level 1
    Видео
    Идентификатор : 1
    Формат : AVC
    Формат/Информация : Advanced Video Codec
    Профиль формата : High@L4
    Настройки формата : CABAC/4 Ref Frames
    Параметр CABAC формата : Да
    Параметр RefFrames формата : 4 кадра
    Идентификатор кодека : V_MPEG4/ISO/AVC
    Продолжительность : 20 м. 31 с.
    Битрейт : 5120 Кбит/сек
    Ширина : 1920 пикселей
    Высота : 1080 пикселей
    Соотношение сторон : 16: 9
    Режим частоты кадров : Постоянный
    Частота кадров : 24, 000 кадра/сек
    Цветовое пространство : YUV
    Субдискретизация насыщенности : 4: 2: 0
    Битовая глубина : 8 бит
    Тип развёртки : Прогрессивная
    Бит/(Пиксели*Кадры) : 0.103
    Размер потока : 737 Мбайт (94%)
    Библиотека кодирования : x264 core 148
    Настройки программы : cabac=1/ref=3/deblock=1: 0: 0/analyse=0x3: 0x113/me=hex/subme=7/psy=1/psy_rd=1.00: 0.00/mixed_ref=1/me_range=16/chroma_me=1/trellis=1/8x8dct=1/cqm=0/deadzone=21, 11/fast_pskip=1/chroma_qp_offset=-2/threads=34/lookahead_threads=5/sliced_threads=0/nr=0/decimate=1/interlaced=0/bluray_compat=0/constrained_intra=0/bframes=6/b_pyramid=2/b_adapt=1/b_bias=0/direct=1/weightb=1/open_gop=0/weightp=2/keyint=48/keyint_min=25/scenecut=0/intra_refresh=0/rc_lookahead=40/rc=2pass/mbtree=1/bitrate=5120/ratetol=1.0/qcomp=0.60/qpmin=0/qpmax=69/qpstep=4/cplxblur=20.0/qblur=0.5/vbv_maxrate=7680/vbv_bufsize=20480/nal_hrd=none/filler=0/ip_ratio=1.40/aq=1: 1.00
    Default : Да
    Forced : Нет
    Аудио
    Идентификатор : 2
    Формат : AC-3
    Формат/Информация : Audio Coding 3
    Коммерческое название : Dolby Digital
    Идентификатор кодека : A_AC3
    Продолжительность : 20 м. 31 с.
    Вид битрейта : Постоянный
    Битрейт : 192 Кбит/сек
    Каналы : 2 канала
    ChannelLayout : L R
    Частота : 48, 0 КГц
    Частота кадров : 31, 250 кадров/сек (1536 SPF)
    Метод сжатия : С потерями
    Задержка видео : -83 мс.
    Размер потока : 28, 2 Мбайт (4%)
    ServiceKind/String : Complete Main
    Default : Да
    Forced : Нет

    Скриншоты для ознакомления



    Все одноименные релизы в Клубе
    Время раздачи: 24/7 (круглосуточно) (до появления первых 3-5 скачавших)

    Онлайн видео Стеклянная гармоника (1968) WEBRip [H.264


    Стеклянная гармоника (1968) WEBRip [H.264 / 1080p-LQ] [PR] торрент скачать бесплатно
    Рейтинг →
     (голосов: 1, оценка 5/5, голосовать можно 1 раз )

    Другие торренты по теме:

  • Стеклянная гармоника (1968) WEBRip


    • Комментарии (0):

      Информация

      Информация

        Посетители, находящиеся в группе Гости, не могут оставлять комментарии в данной новости.

        ↓ Меню




        Популярное