ВАЖНО! Сайт скоро заблокируют! Подписывайся на наш канал в Telegram https://t.me/torrentok и получи доступ к торрентам без ограничений!
.
Авторизация | Регистрация
bitok.xyz
Торрент скачать бесплатно Мультфильмы торрент скачать Отроки во Вселенной (1974) DVDRemux [R.U.S.C.I.C.O.] торрент скачать бесплатно


    Отроки во Вселенной (1974) DVDRemux [R.U.S.C.I.C.O.] торрент скачать бесплатно

    Дата: 9-02-2020, 05:00 | .torrent скачали: 0

    Отроки во Вселенной (1974) DVDRemux [R.U.S.C.I.C.O.]Производство: СССР
    Жанр: фантастика; приключения
    Режиссер: Ричард Викторов

    Актеры
    Александр Григорьев, Михаил Ершов, Владимир Савин, Владимир Басов-младший, Ольга Битюкова, Дмитрий Ледогоров, Ирина Попова, Иннокентий Смоктуновский, Игорь Ледогоров, Наталья Фатеева, Анатолий Адоскин, Лев Дуров, Александр Леньков, Юрий Медведев, Надежда Овчарова, Николай Погодин, Раиса Рязанова, Надежда Семенцова, Ольга Сошникова, Александр Вигдоров, Михаил Янушкевич, Александр Зимин
    Описание : Звездолёт Заря с юными космонавтами приближается к планете системы звезды Шедар (Альфа Кассиопеи), с которой поступали тревожные сигналы. Выясняется, что планета захвачена роботами, цель которых — осчастливить жителей планеты, лишив их всех чувств. Ребятам предстоит преодолеть множество сложных проблем и проявить изобретательность, прежде чем они победят роботов, и тогда обитатели планеты смогут вернуться на неё с орбитальной станции, где они укрывались много лет.

    Возраст: 0+ (для любого возраста)
    Продолжительность: 01: 19: 34
    Качество видео: DVDRemux
    Видео: MPEG-2, 720x576@1024x576, ~6000 Kbps
    Аудио #1: AC3, 6 ch, 448 Kbps
    Аудио #2: AC3, 1 ch, 112 Kbps
    Общее
    Уникальный идентификатор : 339812590699490068582120649884073980381 (0xFFA5863E79A3784E442D4456FC43F1DD)
    Полное имя : Отроки во вселенной.R.U.S.C.I.C.O.1974.DVDRemux.almikl.nnmclub.mkv
    Формат : Matroska
    Версия формата : Version 2
    Размер файла : 3, 98 Гбайт
    Продолжительность : 1 ч. 19 м.
    Режим общего битрейта : Переменный
    Общий поток : 7156 Кбит/сек
    Дата кодирования : UTC 2020-01-30 09: 43: 49
    Программа кодирования : MakeMKV v1.14.7 win(x64-release)
    Библиотека кодирования : libmakemkv v1.14.7 (1.3.5/1.4.7) win(x64-release)
    Видео
    Идентификатор : 1
    OriginalSourceMedium_ID/String : 224 (0xE0)
    Формат : MPEG Video
    Версия формата : Version 2
    Профиль формата : Main@Main
    Настройки формата : CustomMatrix/BVOP
    Параметр BVOP формата : Да
    Параметр матрицы формата : Выборочная
    Параметр GOP формата : M=3, N=9
    Структура изображения : Frame
    Идентификатор кодека : V_MPEG2
    Идентификатор кодека/Информация : MPEG 1 or 2 Video
    Продолжительность : 1 ч. 19 м.
    Вид битрейта : Переменный
    Битрейт : 6591 Кбит/сек
    Ширина : 720 пикселей
    Высота : 576 пикселей
    Соотношение сторон : 4: 3
    Соотношение сторон в оригинале : 16: 9
    Режим частоты кадров : Постоянный
    Частота кадров : 25, 000 кадров/сек
    Стандарт вещания : PAL
    Цветовое пространство : YUV
    Субдискретизация насыщенности : 4: 2: 0
    Битовая глубина : 8 бит
    Тип развёртки : Чересстрочная
    Порядок развёртки : Верхнее поле первое
    Метод сжатия : С потерями
    Бит/(Пиксели*Кадры) : 0.636
    Временной код первого кадра : 00: 59: 04: 00
    Оригинал временного кода : Group of pictures t_head
    GOP, открыто/закрыто : Закрыто
    Размер потока : 3, 67 Гбайт (92%)
    Язык : English
    Default : Нет
    Forced : Нет
    Носитель оригинала : DVD-Video
    Аудио #1
    Идентификатор : 2
    OriginalSourceMedium_ID/String : 189 (0xBD)128 (0x80)
    Формат : AC-3
    Формат/Информация : Audio Coding 3
    Коммерческое название : Dolby Digital
    Идентификатор кодека : A_AC3
    Продолжительность : 1 ч. 19 м.
    Вид битрейта : Постоянный
    Битрейт : 448 Кбит/сек
    Каналы : 6 каналов
    ChannelLayout : L R C LFE Ls Rs
    Частота : 48, 0 КГц
    Частота кадров : 31, 250 кадров/сек (1536 SPF)
    Битовая глубина : 16 бит
    Метод сжатия : С потерями
    Задержка видео : 520 мс.
    Размер потока : 255 Мбайт (6%)
    Заголовок : Surround 5.1
    Язык : Russian
    ServiceKind/String : Complete Main
    Default : Да
    Forced : Нет
    Носитель оригинала : DVD-Video
    Аудио #2
    Идентификатор : 3
    OriginalSourceMedium_ID/String : 189 (0xBD)129 (0x81)
    Формат : AC-3
    Формат/Информация : Audio Coding 3
    Коммерческое название : Dolby Digital
    Идентификатор кодека : A_AC3
    Продолжительность : 1 ч. 19 м.
    Вид битрейта : Постоянный
    Битрейт : 112 Кбит/сек
    Каналы : 1 канал
    ChannelLayout : C
    Частота : 48, 0 КГц
    Частота кадров : 31, 250 кадров/сек (1536 SPF)
    Битовая глубина : 16 бит
    Метод сжатия : С потерями
    Задержка видео : 520 мс.
    Размер потока : 63, 8 Мбайт (2%)
    Заголовок : Mono
    Язык : Russian
    ServiceKind/String : Complete Main
    Default : Нет
    Forced : Нет
    Носитель оригинала : DVD-Video
    Меню
    00: 00: 00.040 : en: Chapter 01
    00: 05: 54.440 : en: Chapter 02
    00: 11: 49.560 : en: Chapter 03
    00: 20: 15.960 : en: Chapter 04
    00: 26: 31.240 : en: Chapter 05
    00: 32: 38.960 : en: Chapter 06
    00: 37: 56.880 : en: Chapter 07
    00: 40: 42.360 : en: Chapter 08
    00: 45: 48.320 : en: Chapter 09
    00: 52: 13.960 : en: Chapter 10
    01: 01: 33.120 : en: Chapter 11
    01: 12: 18.720 : en: Chapter 12

    Скриншоты для ознакомления



    Все одноименные релизы в Клубе
    Время раздачи: 24/7 (до появления первых 3-5 скачавших)

    Онлайн видео Е.В. Миронова


    Отроки во Вселенной (1974) DVDRemux [R.U.S.C.I.C.O.] торрент скачать бесплатно
    Рейтинг →
     (голосов: 1, оценка 3/5, голосовать можно 1 раз )

    Другие торренты по теме:

  • Москва-Кассиопея (1973), Отроки во вселенной (1974). Дилогия. 60fps (1973, 1974.) DVDRip
  • Отроки во Вселенной (1974) DVDRip [H.264]
  • Отроки во Вселенной (1974) DVD5
  • Отроки во Вселенной (1974) DVDRemux
  • Отроки во Вселенной (1974) DVDRemux [R.U.S.C.I.C.O.] [16x9]


    • Комментарии (0):

      Информация

      Информация

        Посетители, находящиеся в группе Гости, не могут оставлять комментарии в данной новости.

        ↓ Меню




        Популярное

        Роботы-пожарные / Fire Robo (2016) WEB-DLRip [H.264 / 720p-LQ] (сезон 1, серии 1-26 из 26) [Обновляемая]

        (скачиваний: 5)
        Сергей Матвеев | Полный курс английского языка для лентяев (2016) [PDF]

        (скачиваний: 4)
        Жила-была царевна (2015-2019) WEB-DLRip [H.264 / 720p-LQ] (сезон 1, серии 1-18 из 26) [Обновляемая]

        (скачиваний: 3)
        Gekijouban KanColle | Kantai Collection Movie | Fleet Girls Collection: Movie Sequence| Коллекционная флотилия на большом экране [2016, Movie] BDrip 720p 10bit raw

        (скачиваний: 3)
        Роберт Кийосаки | Богатый папа, бедный папа для подростков (2014) [PDF, FB2]

        (скачиваний: 3)
        Серия книг | Образовательная манга (2010 - 2015) [PDF]

        (скачиваний: 3)
        Анна Зайцева, Анастасия Дубасова | Чудесный пластилин: лепим вместе с детьми (2011) [PDF]

        (скачиваний: 2)
        Королевская академия / Regal Academy (2016) SATRip [H.264] (Сезон 1, 26 серий из 26) [UKR]

        (скачиваний: 2)
        Свинка Пеппа / Peppa Pig (2004-2012) SATRip (1-4 сезоны: 208 серий из 209) скачать через торрент бесплатно

        (скачиваний: 2)
        Металионы / Metalions (2018-2019) WEB-DLRip [H.264 / 720p-LQ] (сезон 1, серии 1-52 из 52) [Обновляемая]

        (скачиваний: 2)