ВАЖНО! Сайт скоро заблокируют! Подписывайся на наш канал в Telegram https://t.me/torrentok и получи доступ к торрентам без ограничений!
.
Авторизация | Регистрация
bitok.xyz
Торрент скачать бесплатно Мультфильмы торрент скачать Маленькая мисс Дулиттл / Liliane Susewind - Ein tierisches Abenteuer (2018) BDRemux [H.264 / 1080i] торрент скачать бесплатно


    Маленькая мисс Дулиттл / Liliane Susewind - Ein tierisches Abenteuer (2018) BDRemux [H.264 / 1080i] торрент скачать бесплатно

    Дата: 9-02-2020, 05:00 | .torrent скачали: 1

    Маленькая мисс Дулиттл / Liliane Susewind - Ein tierisches Abenteuer (2018) BDRemux [H.264 / 1080i]Производство: Германия, Dreamtool Entertainment, Velvet Films
    Жанр: Фэнтези, комедия, криминал, семейный
    Режиссер: Йоахим Масаннек
    Продюсер: Штефан Райзер, Феликс Цакор, Дэвид Клейкенс

    Актеры
    Малу Ляйхер, Пери Баумайстер, Том Бек, Айлин Тецель, Мерет Беккер, Кристоф Мария Хербст, Арвед Бирнбаум, Даниэль Цильман, Аарон Кисёв, Йоран Ляйхер

    Описание
    Рыжеволосая Лилиан не просто обожает животных, но и умеет понимать их язык и отвечать им. О ее невероятной способности знают только члены семьи, и они всячески оберегают тайну. Но любым тайнам в свое время всегда приходит конец, особенно если на кону стоит спасение зоопарка.

    Возраст: 6+ (зрителям, достигшим 6 лет)
    Дата мировой премьеры: 10 мая 2018
    Дата российской премьеры: 16 января 2020, Кинологистика
    Цифровой релиз: 6 февраля 2020, Веста
    Релиз от: NNMClub
    Продолжительность: 01: 36: 46
    Качество видео: BDRemux 1080p
    Перевод: Дублированный(iTunes)
    Субтитры: Немецкие (full, SDH)
    Видео: AVC/H.264, 1920x1080, 29.9 Mbps, 25.000 fps
    Аудио 1 : AC-3, 6 ch, 384 Kbps | Русский
    Аудио 2 : DTS-HD MA, 6 ch, 2348 Kbps | Немецкий
    General
    Unique ID : 241104141185053316177949085638972206681 (0xB562F7F1159C11E6F11E842CFB00EE59)
    Complete name : /Volumes/Promise Pegasus/Little.Miss.Dolittle.BDRemux.1080p.pk.mkv
    Format : Matroska
    Format version : Version 4
    File size : 22.0 GiB
    Duration : 1h 36mn
    Overall bit rate mode : Variable
    Overall bit rate : 32.6 Mbps
    Movie name : Liliane Susewind - Ein tierisches Abenteuer BDRemux 1080p pk
    Encoded date : UTC 2020-02-07 23: 08: 06
    Writing application : mkvmerge v43.0.0 (\'The Quartermaster\') 64-bit
    Writing library : libebml v1.3.10 + libmatroska v1.5.2
    Cover : Yes
    Attachments : cover.jpg
    Video
    ID : 1
    Format : AVC
    Format/Info : Advanced Video Codec
    Format profile : High@L4.1
    Format settings : CABAC/4 Ref Frames
    Format settings, CABAC : Yes
    Format settings, ReFrames : 4 frames
    Codec ID : V_MPEG4/ISO/AVC
    Duration : 1h 36mn
    Bit rate mode : Variable
    Bit rate : 29.9 Mbps
    Maximum bit rate : 33.0 Mbps
    Width : 1 920 pixels
    Height : 1 080 pixels
    Display aspect ratio : 16: 9
    Frame rate mode : Constant
    Frame rate : 25.000 fps
    Color space : YUV
    Chroma subsampling : 4: 2: 0
    Bit depth : 8 bits
    Scan type : MBAFF
    Scan type, store method : Interleaved fields
    Scan order : Top Field First
    Bits/(Pixel*Frame) : 0.576
    Stream size : 20.2 GiB (92%)
    Language : German
    Default : Yes
    Forced : No
    Audio #1
    ID : 2
    Format : AC-3
    Format/Info : Audio Coding 3
    Commercial name : Dolby Digital
    Codec ID : A_AC3
    Duration : 1h 36mn
    Bit rate mode : Constant
    Bit rate : 384 Kbps
    Channel(s) : 6 channels
    Channel layout : L R C LFE Ls Rs
    Sampling rate : 48.0 KHz
    Frame rate : 31.250 fps (1536 SPF)
    Compression mode : Lossy
    Stream size : 266 MiB (1%)
    Title : Russian Dub iTunes
    Language : Russian
    Service kind : Complete Main
    Default : Yes
    Forced : No
    Audio #2
    ID : 3
    Format : DTS XLL
    Format/Info : Digital Theater Systems
    Commercial name : DTS-HD Master Audio
    Codec ID : A_DTS
    Duration : 1h 36mn
    Bit rate mode : Variable
    Bit rate : 2 348 Kbps
    Channel(s) : 6 channels
    Channel layout : C L R Ls Rs LFE
    Sampling rate : 48.0 KHz
    Frame rate : 93.750 fps (512 SPF)
    Bit depth : 16 bits
    Compression mode : Lossless
    Stream size : 1.59 GiB (7%)
    Title : German Original
    Language : German
    Default : No
    Forced : No
    Text #1
    ID : 4
    Format : UTF-8
    Codec ID : S_TEXT/UTF8
    Codec ID/Info : UTF-8 Plain Text
    Duration : 1h 35mn
    Bit rate : 68 bps
    Count of elements : 1664
    Stream size : 48.0 KiB (0%)
    Title : German full
    Language : German
    Default : No
    Forced : No
    Text #2
    ID : 5
    Format : UTF-8
    Codec ID : S_TEXT/UTF8
    Codec ID/Info : UTF-8 Plain Text
    Duration : 1h 35mn
    Bit rate : 75 bps
    Count of elements : 1928
    Stream size : 52.8 KiB (0%)
    Title : German SDH
    Language : German
    Default : No
    Forced : No
    Menu
    00: 00: 00.000 : : Глава 01
    00: 05: 18.000 : : Глава 02
    00: 09: 41.760 : : Глава 03
    00: 14: 01.240 : : Глава 04
    00: 22: 20.520 : : Глава 05
    00: 28: 56.280 : : Глава 06
    00: 34: 28.600 : : Глава 07
    00: 37: 06.720 : : Глава 08
    00: 43: 54.080 : : Глава 09
    00: 49: 09.000 : : Глава 10
    00: 53: 01.640 : : Глава 11
    00: 59: 06.800 : : Глава 12
    01: 04: 07.200 : : Глава 13
    01: 09: 53.000 : : Глава 14
    01: 20: 35.400 : : Глава 15
    01: 25: 40.200 : : Глава 16

    Скриншоты для ознакомления



    Все одноименные релизы в Клубе
    Время раздачи: 24/7 (круглосуточно) (до появления первых 3-5 скачавших)

    Онлайн видео Маленькая мисс Дулиттл


    Маленькая мисс Дулиттл / Liliane Susewind - Ein tierisches Abenteuer (2018) BDRemux [H.264 / 1080i] торрент скачать бесплатно
    Рейтинг →
     (голосов: 1, оценка 3/5, голосовать можно 1 раз )

    Другие торренты по теме:

  • Маленькая мисс Маркер / Little Miss Marker (1980) DVDRip [H.264]
  • Маленькая мисс Дулиттл / Liliane Susewind - Ein tierisches Abenteuer (2018) WEB-DLRip
  • Маленькая мисс Дулиттл / Liliane Susewind - Ein tierisches Abenteuer (2018) WEB-DL [H.264 / 1080-LQ]
  • Маленькая мисс Дулиттл / Liliane Susewind - Ein tierisches Abenteuer (2018) WEB-DLRip [H.265] [10-bit]


    • Комментарии (0):

      Информация

      Информация

        Посетители, находящиеся в группе Гости, не могут оставлять комментарии в данной новости.

        ↓ Меню




        Популярное

        Металионы / Metalions (2018-2019) WEB-DLRip [H.264 / 720p-LQ] (сезон 1, серии 1-52 из 52) [Обновляемая]

        (скачиваний: 11)
        Фиксики против Кработов (2019) WEB-DL [H.264 / 1080p-LQ]

        (скачиваний: 10)
        Роботы-пожарные / Fire Robo (2016) WEB-DLRip [H.264 / 720p-LQ] (сезон 1, серии 1-26 из 26) [Обновляемая]

        (скачиваний: 8)
        Фиксики против Кработов (2019) WEB-DLRip

        (скачиваний: 7)
        Жила-была царевна (2015-2019) WEB-DLRip [H.264 / 720p-LQ] (сезон 1, серии 1-18 из 26) [Обновляемая]

        (скачиваний: 7)
        Лея Уотерс | Переключение на силу. Как научиться видеть в детях сильные стороны, чтобы помочь им расцвести (2019) [EPUB]

        (скачиваний: 5)
        Kaze no Na wa Amnesia / A Wind Named Amnesia / Ветер амнезии [1990, MV] DVDRip raw

        (скачиваний: 5)
        Канакина В. П., Горецкий В. Г. Электронное приложение к учебнику «Русский язык», 2 класс (2012) [ISO] скачать через торрент бесплатно

        (скачиваний: 5)
        Александр Нилл | Воспитание свободой. Школа Саммерхилл (2020) [EPUB]

        (скачиваний: 5)
        Роберт Кийосаки | Богатый папа, бедный папа для подростков (2014) [PDF, FB2]

        (скачиваний: 5)