ВАЖНО! Сайт скоро заблокируют! Подписывайся на наш канал в Telegram https://t.me/torrentok и получи доступ к торрентам без ограничений!
.
Авторизация | Регистрация
bitok.xyz
Торрент скачать бесплатно Мультфильмы торрент скачать Робин Гуд / Robin Hood (1973) BDRip [H.265 / 1080p-LQ] [10-bit] торрент скачать бесплатно


    Робин Гуд / Robin Hood (1973) BDRip [H.265 / 1080p-LQ] [10-bit] торрент скачать бесплатно

    Дата: 10-02-2020, 05:00 | .torrent скачали: 0

    Робин Гуд / Robin Hood (1973) BDRip [H.265 / 1080p-LQ] [10-bit]Производство: США/Walt Disney Productions, Walt Disney Animation Studios
    Жанр: мультфильм, мелодрама, комедия, приключения, семейный
    Режиссер: Вольфганг Райтерман

    Описание
    Добро пожаловать в дремучий Шервудский лес, где ты встретишь храброго и забавного лисенка по имени Робин Гуд и его лучшего друга Крошку Джона — большого добродушного медведя. Эту веселую компанию давно разыскивает шериф Нотингема. Он готовит друзьям ловушку: на турнире лучников Робин Гуда будет ждать засада. Но отважный лисенок все равно собирается участвовать в состязании: ведь только там у него есть шанс увидеть красавицу Мариан.

    Возраст: 6+ (зрителям, достигшим 6 лет)
    Рейтинг MPAA: G (нет возрастных ограничений)
    Релиз от: Mr. Fox (HEVC-CLUB)
    Продолжительность: 01: 23: 02
    Качество видео: BDRip
    Перевод: Дублированный, многоголосый закадровый
    Субтитры: Русские (форсированные, полные), английские (полные, SDH)
    Видео: HEVC/H.265, 1920x1080, ~6274 Kbps
    Аудио 1: AC3, 2 ch, 192 Kbps - Русский, дублированный (Пифагор)
    Аудио 2: AC3, 6 ch, 448 Kbps - Русский, MVO (Карусель)
    Аудио 3: AC3, 6 ch, 448 Kbps - Английский
    Общее
    Уникальный идентификатор : 11204838973712051067687092676503642245 (0x86DF936A6892C1FB63F057157D1A085)
    Полное имя : R: Robin Hood (1973) BDRip 1080p HEVC.mkv
    Формат : Matroska
    Версия формата : Version 4/Version 2
    Размер файла : 4, 27 Гбайт
    Продолжительность : 1 ч. 23 м.
    Общий поток : 7365 Кбит/сек
    Название фильма : Robin Hood (1973)
    Дата кодирования : UTC 2020-02-09 02: 41: 43
    Программа кодирования : mkvmerge v43.0.0 (\'The Quartermaster\') 64-bit
    Библиотека кодирования : libebml v1.3.10 + libmatroska v1.5.2
    Обложка : Yes
    Attachments : cover.jpg
    Видео
    Идентификатор : 1
    Формат : HEVC
    Формат/Информация : High Efficiency Video Coding
    Профиль формата : Main10@L4.1@High
    Идентификатор кодека : V_MPEGH/ISO/HEVC
    Продолжительность : 1 ч. 23 м.
    Битрейт : 6274 Кбит/сек
    Ширина : 1800 пикселей
    Высота : 1080 пикселей
    Соотношение сторон : 5: 3
    Режим частоты кадров : Постоянный
    Частота кадров : 23, 976 (23976/1000) кадра/сек
    Частота кадров в оригинале : 23, 976 (24000/1001) кадра/сек
    Цветовое пространство : YUV
    Субдискретизация насыщенности : 4: 2: 0
    Битовая глубина : 10 бит
    Бит/(Пиксели*Кадры) : 0.135
    Размер потока : 3, 64 Гбайт (85%)
    Библиотека кодирования : x265 3.2.1+1-b5c86a64bbbe: WindowsMSVC 192364 bit 10bit
    Настройки программы : cpuid=1111039/frame-threads=3/numa-pools=12/wpp/no-pmode/no-pme/no-psnr/no-ssim/log-level=2/input-csp=1/input-res=1800x1080/interlace=0/total-frames=119448/level-idc=41/high-tier=1/uhd-bd=0/ref=5/no-allow-non-conformance/no-repeat-t_heads/annexb/no-aud/no-hrd/info/hash=0/no-temporal-layers/open-gop/min-keyint=23/keyint=240/gop-lookahead=0/bframes=10/b-adapt=2/b-pyramid/bframe-bias=0/rc-lookahead=60/lookahead-slices=4/scenecut=40/radl=0/no-splice/no-intra-refresh/ctu=32/min-cu-size=8/rect/amp/max-tu-size=32/tu-inter-depth=4/tu-intra-depth=4/limit-tu=1/rdoq-level=2/dynamic-rd=0.00/no-ssim-rd/signhide/no-tskip/nr-intra=0/nr-inter=0/no-constrained-intra/no-strong-intra-smoothing/max-merge=4/limit-refs=2/limit-modes/me=3/subme=7/merange=57/temporal-mvp/no-hme/weightp/weightb/no-analyze-src-pics/deblock=-3: -3/no-sao/no-sao-non-deblock/rd=6/selective-sao=0/no-early-skip/no-rskip/no-fast-intra/no-tskip-fast/no-cu-lossless/no-b-intra/no-splitrd-skip/rdpenalty=0/psy-rd=2.00/psy-rdoq=1.00/no-rd-refine/no-lossless/cbqpoffs=0/crqpoffs=0/rc=crf/crf=20.0/qcomp=0.65/qpstep=4/stats-write=0/stats-read=0/vbv-maxrate=50000/vbv-bufsize=50000/vbv-init=0.9/crf-max=0.0/crf-min=0.0/ipratio=1.40/pbratio=1.30/aq-mode=1/aq-strength=1.00/no-cutree/zone-count=0/no-strict-cbr/qg-size=32/no-rc-grain/qpmax=69/qpmin=0/no-const-vbv/sar=1/overscan=0/videoformat=5/range=0/colorprim=1/transfer=1/colormatrix=1/chromaloc=0/display-window=0/cll=0, 0/min-luma=0/max-luma=1023/log2-max-poc-lsb=8/vui-timing-info/vui-hrd-info/slices=1/no-opt-qp-pps/no-opt-ref-list-length-pps/no-multi-pass-opt-rps/scenecut-bias=0.05/no-opt-cu-delta-qp/no-aq-motion/no-hdr/no-hdr-opt/no-dhdr10-opt/no-idr-recovery-sei/analysis-reuse-level=5/scale-factor=0/refine-intra=0/refine-inter=0/refine-mv=1/refine-ctu-distortion=0/no-limit-sao/ctu-info=0/no-lowpass-dct/refine-analysis-type=0/copy-pic=1/max-ausize-factor=1.0/no-dynamic-refine/no-single-sei/no-hevc-aq/no-svt/no-field/qp-adaptation-range=1.00
    Default : Да
    Forced : Нет
    Цветовой диапазон : Limited
    Основные цвета : BT.709
    Характеристики трансфера : BT.709
    Коэффициенты матрицы : BT.709
    Аудио #1
    Идентификатор : 2
    Формат : AC-3
    Формат/Информация : Audio Coding 3
    Идентификатор кодека : A_AC3
    Продолжительность : 1 ч. 23 м.
    Вид битрейта : Постоянный
    Битрейт : 192 Кбит/сек
    Каналы : 2 канала
    Расположение каналов : Front: L R
    Частота : 48, 0 КГц
    Частота кадров : 31, 250 кадров/сек (1536 SPF)
    Битовая глубина : 16 бит
    Метод сжатия : С потерями
    Размер потока : 114 Мбайт (3%)
    Заголовок : DUB Пифагор
    Язык : Russian
    ServiceKind/String : Complete Main
    Default : Да
    Forced : Да
    Аудио #2
    Идентификатор : 3
    Формат : AC-3
    Формат/Информация : Audio Coding 3
    Идентификатор кодека : A_AC3
    Продолжительность : 1 ч. 23 м.
    Вид битрейта : Постоянный
    Битрейт : 448 Кбит/сек
    Каналы : 6 каналов
    Расположение каналов : Front: L C R, Side: L R, LFE
    Частота : 48, 0 КГц
    Частота кадров : 31, 250 кадров/сек (1536 SPF)
    Битовая глубина : 16 бит
    Метод сжатия : С потерями
    Размер потока : 266 Мбайт (6%)
    Заголовок : MVO Карусель
    Язык : Russian
    ServiceKind/String : Complete Main
    Default : Нет
    Forced : Нет
    Аудио #3
    Идентификатор : 4
    Формат : AC-3
    Формат/Информация : Audio Coding 3
    Идентификатор кодека : A_AC3
    Продолжительность : 1 ч. 23 м.
    Вид битрейта : Постоянный
    Битрейт : 448 Кбит/сек
    Каналы : 6 каналов
    Расположение каналов : Front: L C R, Side: L R, LFE
    Частота : 48, 0 КГц
    Частота кадров : 31, 250 кадров/сек (1536 SPF)
    Битовая глубина : 16 бит
    Метод сжатия : С потерями
    Размер потока : 266 Мбайт (6%)
    Заголовок : ORIGINAL
    Язык : English
    ServiceKind/String : Complete Main
    Default : Нет
    Forced : Нет
    Текст #1
    Идентификатор : 5
    Формат : UTF-8
    Идентификатор кодека : S_TEXT/UTF8
    Идентификатор кодека/Информация : UTF-8 Plain Text
    Продолжительность : 1 ч. 21 м.
    Битрейт : 0 бит/сек
    ElementCount : 9
    Размер потока : 366 байт (0%)
    Заголовок : forced
    Язык : Russian
    Default : Да
    Forced : Да
    Текст #2
    Идентификатор : 6
    Формат : UTF-8
    Идентификатор кодека : S_TEXT/UTF8
    Идентификатор кодека/Информация : UTF-8 Plain Text
    Продолжительность : 1 ч. 22 м.
    Битрейт : 78 бит/сек
    ElementCount : 852
    Размер потока : 47, 8 Кбайт (0%)
    Заголовок : full
    Язык : Russian
    Default : Нет
    Forced : Нет
    Текст #3
    Идентификатор : 7
    Формат : UTF-8
    Идентификатор кодека : S_TEXT/UTF8
    Идентификатор кодека/Информация : UTF-8 Plain Text
    Продолжительность : 1 ч. 22 м.
    Битрейт : 52 бит/сек
    ElementCount : 977
    Размер потока : 31, 5 Кбайт (0%)
    Заголовок : full
    Язык : English
    Default : Нет
    Forced : Нет
    Текст #4
    Идентификатор : 8
    Формат : UTF-8
    Идентификатор кодека : S_TEXT/UTF8
    Идентификатор кодека/Информация : UTF-8 Plain Text
    Продолжительность : 1 ч. 22 м.
    Битрейт : 60 бит/сек
    ElementCount : 1117
    Размер потока : 36, 3 Кбайт (0%)
    Заголовок : SDH
    Язык : English
    Default : Нет
    Forced : Нет
    Меню
    00: 00: 00.000 : en: 00: 00: 00.000
    00: 03: 31.962 : en: 00: 03: 31.962
    00: 09: 10.133 : en: 00: 09: 10.133
    00: 15: 09.617 : en: 00: 15: 09.617
    00: 20: 57.089 : en: 00: 20: 57.089
    00: 27: 01.537 : en: 00: 27: 01.537
    00: 31: 22.172 : en: 00: 31: 22.172
    00: 37: 40.049 : en: 00: 37: 40.049
    00: 42: 00.351 : en: 00: 42: 00.351
    00: 48: 57.643 : en: 00: 48: 57.643
    00: 51: 08.983 : en: 00: 51: 08.983
    00: 55: 10.432 : en: 00: 55: 10.432
    01: 03: 05.198 : en: 01: 03: 05.198
    01: 05: 22.001 : en: 01: 05: 22.001
    01: 20: 30.743 : en: 01: 20: 30.743


    Онлайн видео Робин Гуд


    Робин Гуд / Robin Hood (1973) BDRip [H.265 / 1080p-LQ] [10-bit] торрент скачать бесплатно
    Рейтинг →
     (голосов: 1, оценка 3/5, голосовать можно 1 раз )

    Другие торренты по теме:

  • Робин Гуд / Robin Hood (1973) BDRemux [1080p] скачать через торрент бесплатно
  • Бэтмен и Робин / Batman & Robin (1997) BDRip [1080p] скачать через торрент бесплатно
  • Робин Гуд / Robin Hood (1973) BDRip [480p] iPod / iPhone
  • Робин Гуд / Robin Hood (1973) BDRip [720p] ATV скачать через торрент бесплатно
  • Робин Гуд: Принц Воров / Robin Hood: Prince of Thieves (1991) BDRip [H.264 / 1080p] [Extended Cut] скачать через торрент бесплатно
  • Робин и 7 гангстеров / Robin and the 7 Hoods (1964) DVDRip [H.264]
  • Приключения Робин Гуда / The Adventures Of Robin Hood (1938) BDRip [H.264 / 720p]
  • Робин Гуд, правдивая история / Robin des Bois, la veritable histoire (2015) HDRip


    • Комментарии (0):

      Информация

      Информация

        Посетители, находящиеся в группе Гости, не могут оставлять комментарии в данной новости.

        ↓ Меню




        Популярное

        Металионы / Metalions (2018-2019) WEB-DLRip [H.264 / 720p-LQ] (сезон 1, серии 1-52 из 52) [Обновляемая]

        (скачиваний: 11)
        Фиксики против Кработов (2019) WEB-DL [H.264 / 1080p-LQ]

        (скачиваний: 10)
        Роботы-пожарные / Fire Robo (2016) WEB-DLRip [H.264 / 720p-LQ] (сезон 1, серии 1-26 из 26) [Обновляемая]

        (скачиваний: 8)
        Фиксики против Кработов (2019) WEB-DLRip

        (скачиваний: 7)
        Жила-была царевна (2015-2019) WEB-DLRip [H.264 / 720p-LQ] (сезон 1, серии 1-18 из 26) [Обновляемая]

        (скачиваний: 7)
        Лея Уотерс | Переключение на силу. Как научиться видеть в детях сильные стороны, чтобы помочь им расцвести (2019) [EPUB]

        (скачиваний: 5)
        Kaze no Na wa Amnesia / A Wind Named Amnesia / Ветер амнезии [1990, MV] DVDRip raw

        (скачиваний: 5)
        Канакина В. П., Горецкий В. Г. Электронное приложение к учебнику «Русский язык», 2 класс (2012) [ISO] скачать через торрент бесплатно

        (скачиваний: 5)
        Александр Нилл | Воспитание свободой. Школа Саммерхилл (2020) [EPUB]

        (скачиваний: 5)
        Роберт Кийосаки | Богатый папа, бедный папа для подростков (2014) [PDF, FB2]

        (скачиваний: 5)