ВАЖНО! Сайт скоро заблокируют! Подписывайся на наш канал в Telegram https://t.me/torrentok и получи доступ к торрентам без ограничений!
.
Авторизация | Регистрация
bitok.xyz
Торрент скачать бесплатно Мультфильмы торрент скачать Потерянное звено / Missing Link (2019) BDRip [H.264 / 1080p-LQ] [hand made 16:9] торрент скачать бесплатно


    Потерянное звено / Missing Link (2019) BDRip [H.264 / 1080p-LQ] [hand made 16:9] торрент скачать бесплатно

    Дата: 10-02-2020, 05:00 | .torrent скачали: 0

    Потерянное звено / Missing Link (2019) BDRip [H.264 / 1080p-LQ] [hand made 16:9]Производство: США, Канада/Laika Entertainment
    Жанр: Фэнтези, Комедия, Приключения
    Режиссер: Крис Батлер

    Описание

    Бесстрашный натуралист и исследователь Лайонел Фрост поставил перед собой задачу рассказать миру о существовании разных созданий, о которых говорят только легенды. Его новым открытием становится Линк, так называемое недостающее звено - одинокий йети, проживающий в глухих лесах Северной Америки. Фрост решает помочь новому другу найти ближайших родственников, для чего странная компания отправляется в Тибет.

    Возраст: 6+ (зрителям, достигшим 6 лет)
    Рейтинг MPAA: PG (рекомендуется присутствие родителей)
    Продолжительность: 01: 34: 25
    Качество видео: BDRip
    Перевод: Дублированный (iTunes)
    Субтитры: русские (форс), английские (полные)
    Видео: AVC, 1920x1080, ~5000 Kbps
    Аудио #1: AC3, 6 ch, 384 Kbps - русский (дубляж)
    Аудио #2: AC3, 6 ch, 640 Kbps - английский
    x264 info: frame I: 1250 Avg QP: 17.07 size: 171904
    x264 info: frame P: 35970 Avg QP: 18.28 size: 54207
    x264 info: frame B: 98620 Avg QP: 19.62 size: 13954
    Unique ID : 230550304847812539713303861272679655030 (0xAD725FA2E64CD7AD91B49376E775A676)
    Complete name : D: TempNNMMissedLink.2019.1080p.FS.mkv
    Format : Matroska
    Format version : Version 4/Version 2
    File size : 3.98 GiB
    Duration : 1h 34mn
    Overall bit rate : 6 009 Kbps
    Movie name : Missing Link (2019)
    Encoded date : UTC 2020-02-09 10: 07: 42
    Writing application : mkvmerge v9.8.0 (\'Kuglblids\') 64bit
    Writing library : libebml v1.3.4 + libmatroska v1.4.5
    Video
    ID : 1
    Format : AVC
    Format/Info : Advanced Video Codec
    Format profile : High@L4.1
    Format settings, CABAC : Yes
    Format settings, ReFrames : 4 frames
    Codec ID : V_MPEG4/ISO/AVC
    Duration : 1h 34mn
    Bit rate : 5 000 Kbps
    Width : 1 920 pixels
    Height : 1 080 pixels
    Display aspect ratio : 16: 9
    Frame rate mode : Constant
    Frame rate : 23.976 fps
    Color space : YUV
    Chroma subsampling : 4: 2: 0
    Bit depth : 8 bits
    Scan type : Progressive
    Bits/(Pixel*Frame) : 0.101
    Stream size : 3.22 GiB (81%)
    Writing library : x264 core 157 r2935 545de2f
    Encoding settings : cabac=1/ref=4/deblock=1: -2: -2/analyse=0x3: 0x113/me=umh/subme=9/psy=1/psy_rd=1.05: 0.10/mixed_ref=1/me_range=24/chroma_me=1/trellis=2/8x8dct=1/cqm=0/deadzone=21, 11/fast_pskip=0/chroma_qp_offset=-3/threads=5/lookahead_threads=1/sliced_threads=0/nr=0/decimate=0/interlaced=0/bluray_compat=0/constrained_intra=0/bframes=6/b_pyramid=2/b_adapt=2/b_bias=0/direct=1/weightb=1/open_gop=0/weightp=2/keyint=240/keyint_min=24/scenecut=40/intra_refresh=0/rc=2pass/mbtree=0/bitrate=5000/ratetol=1.0/qcomp=0.70/qpmin=3/qpmax=69/qpstep=4/cplxblur=20.0/qblur=0.5/ip_ratio=1.40/pb_ratio=1.30/aq=2: 1.00
    Default : Yes
    Forced : No
    Audio #1
    ID : 2
    Format : AC-3
    Format/Info : Audio Coding 3
    Mode extension : CM (complete main)
    Format settings, Endianness : Big
    Codec ID : A_AC3
    Duration : 1h 34mn
    Bit rate mode : Constant
    Bit rate : 384 Kbps
    Channel(s) : 6 channels
    Channel positions : Front: L C R, Side: L R, LFE
    Sampling rate : 48.0 KHz
    Bit depth : 16 bits
    Compression mode : Lossy
    Stream size : 260 MiB (6%)
    Language : Russian
    Default : Yes
    Forced : No
    Audio #2
    ID : 3
    Format : AC-3
    Format/Info : Audio Coding 3
    Mode extension : CM (complete main)
    Format settings, Endianness : Big
    Codec ID : A_AC3
    Duration : 1h 34mn
    Bit rate mode : Constant
    Bit rate : 640 Kbps
    Channel(s) : 6 channels
    Channel positions : Front: L C R, Side: L R, LFE
    Sampling rate : 48.0 KHz
    Bit depth : 16 bits
    Compression mode : Lossy
    Stream size : 434 MiB (11%)
    Language : English
    Default : No
    Forced : No
    Text #1
    ID : 4
    Format : UTF-8
    Codec ID : S_TEXT/UTF8
    Codec ID/Info : UTF-8 Plain Text
    Title : Forced
    Language : Russian
    Default : Yes
    Forced : No
    Text #2
    ID : 5
    Format : UTF-8
    Codec ID : S_TEXT/UTF8
    Codec ID/Info : UTF-8 Plain Text
    Title : Full
    Language : English
    Default : No
    Forced : No
    Menu
    00: 00: 00.000 : en: Chapter 01
    00: 05: 12.520 : en: Chapter 02
    00: 08: 53.616 : en: Chapter 03
    00: 12: 29.206 : en: Chapter 04
    00: 15: 35.851 : en: Chapter 05
    00: 20: 18.550 : en: Chapter 06
    00: 24: 26.840 : en: Chapter 07
    00: 29: 55.126 : en: Chapter 08
    00: 33: 14.659 : en: Chapter 09
    00: 36: 40.948 : en: Chapter 10
    00: 40: 33.389 : en: Chapter 11
    00: 43: 45.164 : en: Chapter 12
    00: 47: 24.299 : en: Chapter 13
    00: 52: 50.876 : en: Chapter 14
    00: 55: 14.477 : en: Chapter 15
    00: 58: 51.903 : en: Chapter 16
    00: 59: 59.721 : en: Chapter 17
    01: 02: 54.729 : en: Chapter 18
    01: 05: 15.494 : en: Chapter 19
    01: 08: 17.176 : en: Chapter 20
    01: 11: 00.339 : en: Chapter 21
    01: 13: 20.437 : en: Chapter 22
    01: 21: 51.197 : en: Chapter 23
    01: 24: 48.625 : en: Chapter 24

    Скриншоты для ознакомления



    Все одноименные релизы в Клубе
    Время раздачи: с 11: 00 до 01: 00 (до появления первых 3-5 скачавших)

    Онлайн видео Потерянное звено


    Потерянное звено / Missing Link (2019) BDRip [H.264 / 1080p-LQ] [hand made 16:9] торрент скачать бесплатно
    Рейтинг →
     (голосов: 1, оценка 3/5, голосовать можно 1 раз )

    Другие торренты по теме:

  • Потерянное звено / Missing Link (2019) BDRemux [H.264 / 1080p] [MVO]
  • Потерянное звено / Missing Link (2019) BDRemux [H.264 / 1080p] [MVO]
  • Потерянное звено / Missing Link (2019) BDRip [H.264 / 720p-LQ] [MVO]
  • Потерянное звено / Missing Link (2019) BDRip [H.264 / 1080p-LQ] [MVO]
  • Потерянное звено / Missing Link (2019) BDRip [H.264 / 1080p]
  • Потерянное звено / Missing Link (2019) BDRip [H.264 / 720p]
  • Потерянное звено / Missing Link (2019) BDRip [H.264]


    • Комментарии (0):

      Информация

      Информация

        Посетители, находящиеся в группе Гости, не могут оставлять комментарии в данной новости.

        ↓ Меню




        Популярное

        Роботы-пожарные / Fire Robo (2016) WEB-DLRip [H.264 / 720p-LQ] (сезон 1, серии 1-26 из 26) [Обновляемая]

        (скачиваний: 6)
        Лея Уотерс | Переключение на силу. Как научиться видеть в детях сильные стороны, чтобы помочь им расцвести (2019) [EPUB]

        (скачиваний: 5)
        Сергей Матвеев | Полный курс английского языка для лентяев (2016) [PDF]

        (скачиваний: 5)
        Жила-была царевна (2015-2019) WEB-DLRip [H.264 / 720p-LQ] (сезон 1, серии 1-18 из 26) [Обновляемая]

        (скачиваний: 4)
        Металионы / Metalions (2018-2019) WEB-DLRip [H.264 / 720p-LQ] (сезон 1, серии 1-52 из 52) [Обновляемая]

        (скачиваний: 4)
        Алексей Марков | Хулиганская экономика. Финансовые рынки для хулиганов и их родителей (2019) [EPUB]

        (скачиваний: 4)
        Серия книг | Образовательная манга (2010 - 2015) [PDF]

        (скачиваний: 4)
        Александр Нилл | Воспитание свободой. Школа Саммерхилл (2020) [EPUB]

        (скачиваний: 4)
        Мариэтта Чудакова | Рассказы про Россию. 1861—1922 (2020) [EPUB]

        (скачиваний: 3)
        Алена Зюрикова | Дзен в декрете, или Как не сойти с ума от счастья. Режим, сон, воспитание и хорошее настроение (2020) [EPUB]

        (скачиваний: 3)