ВАЖНО! Сайт скоро заблокируют! Подписывайся на наш канал в Telegram https://t.me/torrentok и получи доступ к торрентам без ограничений!
.
Авторизация | Регистрация
bitok.xyz
Торрент скачать бесплатно Мультфильмы торрент скачать Потерянное звено / Missing Link (2019) BDRip [H.264 / 720p] торрент скачать бесплатно


    Потерянное звено / Missing Link (2019) BDRip [H.264 / 720p] торрент скачать бесплатно

    Дата: 10-02-2020, 05:00 | .torrent скачали: 0

    Потерянное звено / Missing Link (2019) BDRip [H.264 / 720p]Производство: США, Канада, Laika Entertainment
    Жанр: Фэнтези, Комедия, Приключения
    Режиссер: Крис Батлер

    Описание

    Бесстрашный натуралист и исследователь Лайонел Фрост поставил перед собой задачу рассказать миру о существовании разных созданий, о которых говорят только легенды. Его новым открытием становится Линк, так называемое недостающее звено - одинокий йети, проживающий в глухих лесах Северной Америки. Фрост решает помочь новому другу найти ближайших родственников, для чего странная компания отправляется в Тибет.

    Возраст: 6+ (зрителям, достигшим 6 лет)
    Рейтинг MPAA: PG (рекомендуется присутствие родителей)
    Продолжительность: 01: 34: 25
    Качество видео: BDRip 720p
    Перевод: Дублированный (iTunes)
    Субтитры: русские, английские
    Видео: H.264/AVC, 1280x536, ~6233 kbps
    Аудио 1: AC3, 6 ch, 384 Kbps - русский (DUB iTunes)
    Аудио 2: AC3, 6 ch, 640 Kbps - английский
    Общее
    Уникальный идентификатор : 181559913289743970178714827732206025427 (0x88972AD8CB2501DC979E58B55A84FAD3)
    Полное имя : D: MULTPoteryannoe.zveno.2019.720p.BluRay.mkv
    Формат : Matroska
    Версия формата : Version 4
    Размер файла : 4, 82 Гбайт
    Продолжительность : 1 ч. 34 м.
    Общий поток : 7278 Кбит/сек
    Дата кодирования : UTC 2020-02-07 16: 51: 39
    Программа кодирования : mkvmerge v8.3.0 (\'Over the Horizon\') 64bit
    Библиотека кодирования : libebml v1.3.1 + libmatroska v1.4.2
    Видео
    Идентификатор : 1
    Формат : AVC
    Формат/Информация : Advanced Video Codec
    Профиль формата : High@L4.1
    Настройки формата : CABAC/12 Ref Frames
    Параметр CABAC формата : Да
    Параметр RefFrames формата : 12 кадров
    Идентификатор кодека : V_MPEG4/ISO/AVC
    Продолжительность : 1 ч. 34 м.
    Битрейт : 6233 Кбит/сек
    Ширина : 1280 пикселей
    Высота : 536 пикселей
    Соотношение сторон : 2, 40: 1
    Режим частоты кадров : Постоянный
    Частота кадров : 23, 976 (24000/1001) кадра/сек
    Цветовое пространство : YUV
    Субдискретизация насыщенности : 4: 2: 0
    Битовая глубина : 8 бит
    Тип развёртки : Прогрессивная
    Бит/(Пиксели*Кадры) : 0.379
    Размер потока : 4, 11 Гбайт (85%)
    Библиотека кодирования : x264 core 155 r2867+74 66b5600 t_mod_Custom_2 8-bit@all X86_64
    Настройки программы : cabac=1/ref=12/deblock=1: 1: 2/analyse=0x3: 0x113/me=umh/subme=11/psy=1/fade_compensate=0.00/psy_rd=1.00: 0.00/mixed_ref=1/me_range=32/chroma_me=1/trellis=2/8x8dct=1/cqm=0/deadzone=21, 11/fast_pskip=0/chroma_qp_offset=-2/threads=12/lookahead_threads=2/sliced_threads=0/nr=0/decimate=0/interlaced=0/bluray_compat=0/constrained_intra=0/fgo=0/bframes=8/b_pyramid=2/b_adapt=2/b_bias=0/direct=3/weightb=1/open_gop=0/weightp=2/keyint=250/keyint_min=23/scenecut=40/intra_refresh=0/rc_lookahead=60/rc=crf/mbtree=0/crf=14.0000/qcomp=0.60/qpmin=0: 0: 0/qpmax=69: 69: 69/qpstep=4/vbv_maxrate=30000/vbv_bufsize=38000/crf_max=0.0/nal_hrd=none/filler=0/ip_ratio=1.30/pb_ratio=1.20/aq=3: 0.80/aq-sensitivity=10.00/aq-factor=1.00: 1.00: 1.00/aq2=0/aq3=0
    Язык : English
    Default : Да
    Forced : Нет
    Цветовой диапазон : Limited
    Основные цвета : BT.709
    Характеристики трансфера : BT.709
    Коэффициенты матрицы : BT.709
    Аудио #1
    Идентификатор : 2
    Формат : AC-3
    Формат/Информация : Audio Coding 3
    Коммерческое название : Dolby Digital
    Идентификатор кодека : A_AC3
    Продолжительность : 1 ч. 34 м.
    Вид битрейта : Постоянный
    Битрейт : 384 Кбит/сек
    Каналы : 6 каналов
    ChannelLayout : L R C LFE Ls Rs
    Частота : 48, 0 КГц
    Частота кадров : 31, 250 кадров/сек (1536 SPF)
    Метод сжатия : С потерями
    Размер потока : 260 Мбайт (5%)
    Заголовок : iTunes (ELEKTRI4KA.UNIONGANG)
    Язык : Russian
    ServiceKind/String : Complete Main
    Default : Да
    Forced : Нет
    Аудио #2
    Идентификатор : 3
    Формат : AC-3
    Формат/Информация : Audio Coding 3
    Коммерческое название : Dolby Digital
    Идентификатор кодека : A_AC3
    Продолжительность : 1 ч. 34 м.
    Вид битрейта : Постоянный
    Битрейт : 640 Кбит/сек
    Каналы : 6 каналов
    ChannelLayout : L R C LFE Ls Rs
    Частота : 48, 0 КГц
    Частота кадров : 31, 250 кадров/сек (1536 SPF)
    Метод сжатия : С потерями
    Размер потока : 432 Мбайт (9%)
    Язык : English
    ServiceKind/String : Complete Main
    Default : Нет
    Forced : Нет
    Текст #1
    Идентификатор : 4
    Формат : UTF-8
    Идентификатор кодека : S_TEXT/UTF8
    Идентификатор кодека/Информация : UTF-8 Plain Text
    Продолжительность : 8 с. 50 мс.
    Битрейт : 248 бит/сек
    ElementCount : 5
    Размер потока : 250 байт (0%)
    Заголовок : Forced
    Язык : Russian
    Default : Да
    Forced : Нет
    Текст #2
    Идентификатор : 5
    Формат : PGS
    Режим смешивания : zlib
    Идентификатор кодека : S_HDMV/PGS
    Идентификатор кодека/Информация : Picture based subtitle format used on BDs/HD-DVDs
    Продолжительность : 1 ч. 34 м.
    Битрейт : 22, 1 Кбит/сек
    ElementCount : 3404
    Размер потока : 14, 9 Мбайт (0%)
    Язык : English
    Default : Нет
    Forced : Да
    Текст #3
    Идентификатор : 6
    Формат : PGS
    Режим смешивания : zlib
    Идентификатор кодека : S_HDMV/PGS
    Идентификатор кодека/Информация : Picture based subtitle format used on BDs/HD-DVDs
    Продолжительность : 1 ч. 34 м.
    Битрейт : 17, 0 Кбит/сек
    ElementCount : 3270
    Размер потока : 11, 5 Мбайт (0%)
    Язык : English
    Default : Нет
    Forced : Нет
    Текст #4
    Идентификатор : 7
    Формат : PGS
    Режим смешивания : zlib
    Идентификатор кодека : S_HDMV/PGS
    Идентификатор кодека/Информация : Picture based subtitle format used on BDs/HD-DVDs
    Продолжительность : 8 с. 50 мс.
    Битрейт : 26, 4 Кбит/сек
    ElementCount : 10
    Размер потока : 26, 0 Кбайт (0%)
    Язык : English
    Default : Нет
    Forced : Нет
    Меню
    00: 00: 00.000 : en: Chapter 01
    00: 05: 12.521 : en: Chapter 02
    00: 08: 53.616 : en: Chapter 03
    00: 12: 29.207 : en: Chapter 04
    00: 15: 35.852 : en: Chapter 05
    00: 20: 18.551 : en: Chapter 06
    00: 24: 26.840 : en: Chapter 07
    00: 29: 55.127 : en: Chapter 08
    00: 33: 14.659 : en: Chapter 09
    00: 36: 40.949 : en: Chapter 10
    00: 40: 33.389 : en: Chapter 11
    00: 43: 45.164 : en: Chapter 12
    00: 47: 24.300 : en: Chapter 13
    00: 52: 50.876 : en: Chapter 14
    00: 55: 14.478 : en: Chapter 15
    00: 58: 51.903 : en: Chapter 16
    00: 59: 59.721 : en: Chapter 17
    01: 02: 54.729 : en: Chapter 18
    01: 05: 15.495 : en: Chapter 19
    01: 08: 17.176 : en: Chapter 20
    01: 11: 00.339 : en: Chapter 21
    01: 13: 20.438 : en: Chapter 22
    01: 21: 51.198 : en: Chapter 23
    01: 24: 48.625 : en: Chapter 24

    Скриншоты для ознакомления



    Все одноименные релизы в Клубе
    Время раздачи: с 5: 00 до 19: 00 мск (до появления первых 3-5 скачавших)

    Онлайн видео Потерянное звено


    Потерянное звено / Missing Link (2019) BDRip [H.264 / 720p] торрент скачать бесплатно
    Рейтинг →
     (голосов: 1, оценка 5/5, голосовать можно 1 раз )

    Другие торренты по теме:

  • Потерянное звено / Missing Link (2019) BDRemux [H.264 / 1080p] [MVO]
  • Потерянное звено / Missing Link (2019) BDRemux [H.264 / 1080p] [MVO]
  • Потерянное звено / Missing Link (2019) BDRip [H.264 / 720p-LQ] [MVO]
  • Потерянное звено / Missing Link (2019) BDRip [H.264 / 1080p-LQ] [MVO]
  • Потерянное звено / Missing Link (2019) BDRip [H.264 / 1080p]
  • Потерянное звено / Missing Link (2019) BDRip [H.264 / 1080p-LQ] [hand made 16:9]
  • Потерянное звено / Missing Link (2019) BDRip [H.264]


    • Комментарии (0):

      Информация

      Информация

        Посетители, находящиеся в группе Гости, не могут оставлять комментарии в данной новости.

        ↓ Меню




        Популярное

        Металионы / Metalions (2018-2019) WEB-DLRip [H.264 / 720p-LQ] (сезон 1, серии 1-52 из 52) [Обновляемая]

        (скачиваний: 11)
        Фиксики против Кработов (2019) WEB-DL [H.264 / 1080p-LQ]

        (скачиваний: 10)
        Роботы-пожарные / Fire Robo (2016) WEB-DLRip [H.264 / 720p-LQ] (сезон 1, серии 1-26 из 26) [Обновляемая]

        (скачиваний: 8)
        Фиксики против Кработов (2019) WEB-DLRip

        (скачиваний: 7)
        Жила-была царевна (2015-2019) WEB-DLRip [H.264 / 720p-LQ] (сезон 1, серии 1-18 из 26) [Обновляемая]

        (скачиваний: 7)
        Роберт Кийосаки | Богатый папа, бедный папа для подростков (2014) [PDF, FB2]

        (скачиваний: 5)
        Канакина В. П., Горецкий В. Г. Электронное приложение к учебнику «Русский язык», 2 класс (2012) [ISO] скачать через торрент бесплатно

        (скачиваний: 5)
        Александр Нилл | Воспитание свободой. Школа Саммерхилл (2020) [EPUB]

        (скачиваний: 5)
        Kaze no Na wa Amnesia / A Wind Named Amnesia / Ветер амнезии [1990, MV] DVDRip raw

        (скачиваний: 5)
        Лея Уотерс | Переключение на силу. Как научиться видеть в детях сильные стороны, чтобы помочь им расцвести (2019) [EPUB]

        (скачиваний: 5)