ВАЖНО! Сайт скоро заблокируют! Подписывайся на наш канал в Telegram https://t.me/torrentok и получи доступ к торрентам без ограничений!
.
Авторизация | Регистрация
bitok.xyz
Торрент скачать бесплатно Мультфильмы торрент скачать Семейка Аддамс / The Addams Family (2019) BDRip [H.265 / 720] [10-bit] [PR] торрент скачать бесплатно


    Семейка Аддамс / The Addams Family (2019) BDRip [H.265 / 720] [10-bit] [PR] торрент скачать бесплатно

    Дата: 10-02-2020, 05:00 | .torrent скачали: 1

    Семейка Аддамс / The Addams Family (2019) BDRip [H.265 / 720] [10-bit] [PR]Производство: Канада, США/Metro-Goldwyn-Mayer (MGM), Cinesite Animation
    Жанр: Мультфильм, ужасы, фэнтези, комедия, семейный
    Режиссер: Грег Тирнан, Конрад Вернон

    Актеры
    Оскар Айзек, Шарлиз Терон, Хлоя Грейс Морец, Финн Вулфард, Ник Кролл, Снуп Догг, Бетт Мидлер, Эллисон Джэнни, Мартин Шорт, Кэтрин О`Хара

    Описание

    Папа любит долгие прогулки в ненастную погоду. Мама считает, что черный цвет самый яркий. У детей кладбище - любимая площадка для игр. Бабушка выпивает пару капель яда перед сном. Вы все еще думаете, что ваши родственники странные? Знакомьтесь - семейка Аддамс.

    Возраст: 12+ (зрителям, достигшим 12 лет)
    Рейтинг MPAA: PG (рекомендуется присутствие родителей)
    Дата российской премьеры: 31 октября 2019
    Продолжительность: 01: 27: 01
    Качество видео: BDRip (720p)
    Перевод: Дублированный (Онлайн кинотеатр)
    Субтитры: Английские
    Видео: HEVC/H.265, 1280x690, 4893 Kbps
    Аудио 1: AC3, 6 ch, 384 Kbps | Русский
    Аудио 2: AC3, 6 ch, 448 Kbps | АнглийскийОбщее
    Уникальный идентификатор : 297752259277902038788433140552959849909 (0xE000FFCC91AEED18A3E97983168CF5B5)
    Полное имя : The.Addams.Family.2019.BDRip.720p.HEVC.mkv
    Формат : Matroska
    Версия формата : Version 4/Version 2
    Размер файла : 3, 57 Гбайт
    Продолжительность : 1 ч. 27 м.
    Общий поток : 5841 Кбит/сек
    Название фильма : Семейка Аддамс_The Addams Family (2019)
    Программа кодирования : XviD4PSP 8.0.91
    Библиотека кодирования : Lavf58.20.100
    ErrorDetectionType : Per level 1
    ENCODING_INFO : MATROSKA, WEBM MKV 1280x720 HEVC 10-bit
    Видео
    Идентификатор : 1
    Формат : HEVC
    Формат/Информация : High Efficiency Video Coding
    Профиль формата : Main10@L4.1@High
    Идентификатор кодека : V_MPEGH/ISO/HEVC
    Продолжительность : 1 ч. 27 м.
    Битрейт : 4893 Кбит/сек
    Ширина : 1280 пикселей
    Высота : 690 пикселей
    Соотношение сторон : 1, 85: 1
    Режим частоты кадров : Постоянный
    Частота кадров : 23, 976 (24000/1001) кадра/сек
    Цветовое пространство : YUV
    Субдискретизация насыщенности : 4: 2: 0
    Битовая глубина : 10 бит
    Бит/(Пиксели*Кадры) : 0.231
    Размер потока : 2, 99 Гбайт (84%)
    Заголовок : Семейка Аддамс_The Addams Family (2019)
    Язык : English
    Default : Да
    Forced : Нет
    Цветовой диапазон : Full
    ENCODING_INFO : H264 HEVC NVENC VBR 5000kbps HQ
    Аудио #1
    Идентификатор : 2
    Формат : AC-3
    Формат/Информация : Audio Coding 3
    Параметр Endianness формата : Big
    Идентификатор кодека : A_AC3
    Продолжительность : 1 ч. 27 м.
    Вид битрейта : Постоянный
    Битрейт : 384 Кбит/сек
    Каналы : 6 каналов
    Расположение каналов : Front: L C R, Side: L R, LFE
    Частота : 48, 0 КГц
    Частота кадров : 31, 250 кадров/сек (1536 SPF)
    Битовая глубина : 16 бит
    Метод сжатия : С потерями
    Размер потока : 240 Мбайт (7%)
    Заголовок : Дублированный 5.1 ch (WetY ®)
    Язык : Russian
    ServiceKind/String : Complete Main
    Default : Да
    Forced : Нет
    ENCODING_INFO : AC3 COPY Безопасное
    Аудио #2
    Идентификатор : 3
    Формат : AC-3
    Формат/Информация : Audio Coding 3
    Параметр Endianness формата : Big
    Идентификатор кодека : A_AC3
    Продолжительность : 1 ч. 27 м.
    Вид битрейта : Постоянный
    Битрейт : 448 Кбит/сек
    Каналы : 6 каналов
    Расположение каналов : Front: L C R, Side: L R, LFE
    Частота : 48, 0 КГц
    Частота кадров : 31, 250 кадров/сек (1536 SPF)
    Битовая глубина : 16 бит
    Метод сжатия : С потерями
    Размер потока : 280 Мбайт (8%)
    Заголовок : Оригинал
    Язык : English
    ServiceKind/String : Complete Main
    Default : Нет
    Forced : Нет
    ENCODING_INFO : DTS-HD MA AC3 CBR 448kbps
    Текст
    Идентификатор : 4
    Формат : UTF-8
    Идентификатор кодека : S_TEXT/UTF8
    Идентификатор кодека/Информация : UTF-8 Plain Text
    Язык : English
    Default : Да
    Forced : Нет
    ENCODING_INFO : SUBRIP COPY Быстрое
    Меню
    00: 00: 00.000 : : Chapter 01
    00: 05: 08.558 : : Chapter 02
    00: 10: 35.468 : : Chapter 03
    00: 15: 46.946 : : Chapter 04
    00: 19: 35.257 : : Chapter 05
    00: 25: 14.805 : : Chapter 06
    00: 29: 25.764 : : Chapter 07
    00: 34: 20.558 : : Chapter 08
    00: 39: 46.968 : : Chapter 09
    00: 45: 01.741 : : Chapter 10
    00: 49: 07.611 : : Chapter 11
    00: 53: 40.926 : : Chapter 12
    00: 56: 36.560 : : Chapter 13
    01: 00: 01.014 : : Chapter 14
    01: 03: 45.947 : : Chapter 15
    01: 06: 02.458 : : Chapter 16
    01: 10: 54.584 : : Chapter 17
    01: 18: 09.476 : : Chapter 18
    01: 20: 21.316 : : Chapter 19
    01: 21: 11.325 : : Chapter 20

    Скриншоты для ознакомления



    Все одноименные релизы в Клубе
    Время раздачи: 19 - 23 (до появления первых 3-5 скачавших)

    Онлайн видео Семейка Аддамс


    Семейка Аддамс / The Addams Family (2019) BDRip [H.265 / 720] [10-bit] [PR] торрент скачать бесплатно
    Рейтинг →
     (голосов: 1, оценка 5/5, голосовать можно 1 раз )

    Другие торренты по теме:

  • Семейка Аддамс / The Addams Family (2019) DVD5 [Custom]
  • Семейка Аддамс / The Addams Family (2019) DVD9
  • Семейка Аддамс. Дилогия. / The Addams Family. 2-Movie Set. (1991 / 1993) HDTVRip [H.264] [MP4|1024x576]
  • Семейка Аддамс. Дилогия. / The Addams Family. 2-Movie Set. (1991 / 1993) HDTVRip [H.264] [MP4|1280x720]
  • Семейка Аддамс / The Addams Family (2019) WEB-DLRip [H.264]
  • Семейка Аддамс / The Addams Family (2019) WEB-DLRip
  • Семейка Аддамс / The Addams Family (2019) WEB-DL [H.264 / 1080p-LQ]
  • Семейка Аддамс / The Addams Family (2019) AC3 5.1 [hand made]


    • Комментарии (0):

      Информация

      Информация

        Посетители, находящиеся в группе Гости, не могут оставлять комментарии в данной новости.

        ↓ Меню




        Популярное

        Роботы-пожарные / Fire Robo (2016) WEB-DLRip [H.264 / 720p-LQ] (сезон 1, серии 1-26 из 26) [Обновляемая]

        (скачиваний: 6)
        Сергей Матвеев | Полный курс английского языка для лентяев (2016) [PDF]

        (скачиваний: 5)
        Серия книг | Образовательная манга (2010 - 2015) [PDF]

        (скачиваний: 4)
        Мариэтта Чудакова | Рассказы про Россию. 1861—1922 (2020) [EPUB]

        (скачиваний: 3)
        Алексей Марков | Хулиганская экономика. Финансовые рынки для хулиганов и их родителей (2019) [EPUB]

        (скачиваний: 3)
        Ляля Кандаурова | Как слушать музыку (2020) [EPUB]

        (скачиваний: 3)
        Александр Нилл | Воспитание свободой. Школа Саммерхилл (2020) [EPUB]

        (скачиваний: 3)
        Алена Зюрикова | Дзен в декрете, или Как не сойти с ума от счастья. Режим, сон, воспитание и хорошее настроение (2020) [EPUB]

        (скачиваний: 3)
        Жила-была царевна (2015-2019) WEB-DLRip [H.264 / 720p-LQ] (сезон 1, серии 1-18 из 26) [Обновляемая]

        (скачиваний: 3)
        Gekijouban KanColle | Kantai Collection Movie | Fleet Girls Collection: Movie Sequence| Коллекционная флотилия на большом экране [2016, Movie] BDrip 720p 10bit raw

        (скачиваний: 3)