ВАЖНО! Сайт скоро заблокируют! Подписывайся на наш канал в Telegram https://t.me/torrentok и получи доступ к торрентам без ограничений!
.
Авторизация | Регистрация
bitok.xyz
Торрент скачать бесплатно Мультфильмы торрент скачать Москва-Кассиопея (1973) DVDRemux [R.U.S.C.I.C.O.] торрент скачать бесплатно


    Москва-Кассиопея (1973) DVDRemux [R.U.S.C.I.C.O.] торрент скачать бесплатно

    Дата: 10-02-2020, 05:00 | .torrent скачали: 1

    Москва-Кассиопея (1973) DVDRemux [R.U.S.C.I.C.O.]Производство: СССР
    Жанр: фантастика; приключения
    Режиссер: Ричард Викторов

    Актеры
    Иннокентий Смоктуновский, Василий Меркурьев, Лев Дуров, Юрий Медведев, Петр Меркурьев, Миша Ершов, Саша Григорьев, Владимир Савин, Владимир Басов, Ольга Битюкова, Надя Овчарова, Ира Попова
    Описание : Из глубин Вселенной до Земли долетает радиосигнал разумных существ с планеты из системы звезды Шедар (Альфа созвездия Кассиопеи). Проект, предложенный юным изобретателем Витей Середой, должен позволить земному звездолёту достичь планеты — но полёт продлится несколько десятилетий, поэтому экипаж космического корабля Заря набирают из школьников.
    Всё тщательно продумано, однако тайком пробравшийся на звездолёт хулиган и выдумщик Федя Лобанов помимо своей воли устраивает так, что корабль оказывается у цели значительно раньше намеченного срока.

    Возраст: 6+ (зрителям, достигшим 6 лет)
    Продолжительность: 01: 19: 44
    Качество видео: DVDRemux
    Видео: MPEG-2, 720x576@1024x576, ~6000 Kbps
    Аудио #1: AC3, 6 ch, 448 Kbps
    Аудио #2: AC3, 1 ch, 112 Kbps
    Общее
    Уникальный идентификатор : 310404953157104410687679122678378148144 (0xE985D1C552537CF3B359319305403130)
    Полное имя : Москва-Кассиопея.R.U.S.C.I.C.O.1973.DVDRemux.almikl.nnmclub.mkv
    Формат : Matroska
    Версия формата : Version 2
    Размер файла : 3, 66 Гбайт
    Продолжительность : 1 ч. 19 м.
    Режим общего битрейта : Переменный
    Общий поток : 6565 Кбит/сек
    Дата кодирования : UTC 2020-01-30 09: 43: 04
    Программа кодирования : MakeMKV v1.14.7 win(x64-release)
    Библиотека кодирования : libmakemkv v1.14.7 (1.3.5/1.4.7) win(x64-release)
    Видео
    Идентификатор : 1
    OriginalSourceMedium_ID/String : 224 (0xE0)
    Формат : MPEG Video
    Версия формата : Version 2
    Профиль формата : Main@Main
    Настройки формата : CustomMatrix/BVOP
    Параметр BVOP формата : Да
    Параметр матрицы формата : Выборочная
    Параметр GOP формата : Variable
    Структура изображения : Frame
    Идентификатор кодека : V_MPEG2
    Идентификатор кодека/Информация : MPEG 1 or 2 Video
    Продолжительность : 1 ч. 19 м.
    Вид битрейта : Переменный
    Битрейт : 6000 Кбит/сек
    Ширина : 720 пикселей
    Высота : 576 пикселей
    Соотношение сторон : 4: 3
    Соотношение сторон в оригинале : 16: 9
    Режим частоты кадров : Постоянный
    Частота кадров : 25, 000 кадров/сек
    Стандарт вещания : PAL
    Цветовое пространство : YUV
    Субдискретизация насыщенности : 4: 2: 0
    Битовая глубина : 8 бит
    Тип развёртки : Чересстрочная
    Порядок развёртки : Верхнее поле первое
    Метод сжатия : С потерями
    Бит/(Пиксели*Кадры) : 0.579
    Временной код первого кадра : 00: 59: 04: 00
    Оригинал временного кода : Group of pictures t_head
    Размер потока : 3, 35 Гбайт (91%)
    Язык : English
    Default : Нет
    Forced : Нет
    Носитель оригинала : DVD-Video
    Аудио #1
    Идентификатор : 2
    OriginalSourceMedium_ID/String : 189 (0xBD)128 (0x80)
    Формат : AC-3
    Формат/Информация : Audio Coding 3
    Коммерческое название : Dolby Digital
    Идентификатор кодека : A_AC3
    Продолжительность : 1 ч. 19 м.
    Вид битрейта : Постоянный
    Битрейт : 448 Кбит/сек
    Каналы : 6 каналов
    ChannelLayout : L R C LFE Ls Rs
    Частота : 48, 0 КГц
    Частота кадров : 31, 250 кадров/сек (1536 SPF)
    Битовая глубина : 16 бит
    Метод сжатия : С потерями
    Задержка видео : 520 мс.
    Размер потока : 256 Мбайт (7%)
    Заголовок : Surround 5.1
    Язык : Russian
    ServiceKind/String : Complete Main
    Default : Да
    Forced : Нет
    Носитель оригинала : DVD-Video
    Аудио #2
    Идентификатор : 3
    OriginalSourceMedium_ID/String : 189 (0xBD)129 (0x81)
    Формат : AC-3
    Формат/Информация : Audio Coding 3
    Коммерческое название : Dolby Digital
    Идентификатор кодека : A_AC3
    Продолжительность : 1 ч. 19 м.
    Вид битрейта : Постоянный
    Битрейт : 112 Кбит/сек
    Каналы : 1 канал
    ChannelLayout : C
    Частота : 48, 0 КГц
    Частота кадров : 31, 250 кадров/сек (1536 SPF)
    Битовая глубина : 16 бит
    Метод сжатия : С потерями
    Задержка видео : 520 мс.
    Размер потока : 64, 0 Мбайт (2%)
    Заголовок : Mono
    Язык : Russian
    ServiceKind/String : Complete Main
    Default : Нет
    Forced : Нет
    Носитель оригинала : DVD-Video
    Меню
    00: 00: 00.040 : en: Chapter 01
    00: 03: 47.280 : en: Chapter 02
    00: 12: 13.200 : en: Chapter 03
    00: 19: 07.960 : en: Chapter 04
    00: 27: 18.120 : en: Chapter 05
    00: 31: 38.520 : en: Chapter 06
    00: 39: 57.880 : en: Chapter 07
    00: 45: 12.360 : en: Chapter 08
    00: 49: 09.280 : en: Chapter 09
    00: 54: 11.240 : en: Chapter 10
    00: 58: 39.000 : en: Chapter 11
    01: 07: 28.560 : en: Chapter 12

    Скриншоты для ознакомления



    Все одноименные релизы в Клубе
    Время раздачи: 24/7 (до появления первых 3-5 скачавших)

    Онлайн видео Москва


    Москва-Кассиопея (1973) DVDRemux [R.U.S.C.I.C.O.] торрент скачать бесплатно
    Рейтинг →
     (голосов: 1, оценка 5/5, голосовать можно 1 раз )

    Другие торренты по теме:

  • Москва-Кассиопея (1973) DVDRemux
  • Москва-Кассиопея (1973) DVDRemux [R.U.S.C.I.C.O.] [16x9]


    • Комментарии (0):

      Информация

      Информация

        Посетители, находящиеся в группе Гости, не могут оставлять комментарии в данной новости.

        ↓ Меню




        Популярное

        Металионы / Metalions (2018-2019) WEB-DLRip [H.264 / 720p-LQ] (сезон 1, серии 1-52 из 52) [Обновляемая]

        (скачиваний: 11)
        Фиксики против Кработов (2019) WEB-DL [H.264 / 1080p-LQ]

        (скачиваний: 10)
        Роботы-пожарные / Fire Robo (2016) WEB-DLRip [H.264 / 720p-LQ] (сезон 1, серии 1-26 из 26) [Обновляемая]

        (скачиваний: 8)
        Фиксики против Кработов (2019) WEB-DLRip

        (скачиваний: 7)
        Жила-была царевна (2015-2019) WEB-DLRip [H.264 / 720p-LQ] (сезон 1, серии 1-18 из 26) [Обновляемая]

        (скачиваний: 7)
        Лея Уотерс | Переключение на силу. Как научиться видеть в детях сильные стороны, чтобы помочь им расцвести (2019) [EPUB]

        (скачиваний: 5)
        Kaze no Na wa Amnesia / A Wind Named Amnesia / Ветер амнезии [1990, MV] DVDRip raw

        (скачиваний: 5)
        Канакина В. П., Горецкий В. Г. Электронное приложение к учебнику «Русский язык», 2 класс (2012) [ISO] скачать через торрент бесплатно

        (скачиваний: 5)
        Александр Нилл | Воспитание свободой. Школа Саммерхилл (2020) [EPUB]

        (скачиваний: 5)
        Роберт Кийосаки | Богатый папа, бедный папа для подростков (2014) [PDF, FB2]

        (скачиваний: 5)