Подписывайся на наш канал в Telegram https://t.me/torrentok и получи доступ к торрентам без ограничений!
.
Авторизация | Регистрация
bitok.xyz
Торрент скачать бесплатно Мультфильмы торрент скачать Иван Царевич и Серый Волк 4 (2019) WEBRip торрент скачать бесплатно


    Иван Царевич и Серый Волк 4 (2019) WEBRip торрент скачать бесплатно

    Дата: 10-02-2020, 05:00 | .torrent скачали: 3

    Иван Царевич и Серый Волк 4 (2019) WEBRipПроизводство: Россия/Кинокомпания CTB, Анимационная студия Мельница
    Жанр: мультфильм, приключения, семейный
    Режиссер: Дарина Шмидт

    Описание

    Зима в этом году в тридевятом царстве случилась особенно долгая и холодная. Прямо, как в прошлом году. И как в позапрошлом. Но, вот, пришла весна. Точнее — почти пришла. С вьюгой, морозами и снегом. Как обычно. И совсем было загрустили наши герои — Иван, Василиса, Серый Волк и Царь-батюшка, если бы вместе с почти-весной, не пришла новость — в Трисемнадцатом царстве пройдет ежегодный всесказочный конкурс песни. В прошлом году там победил хомяк Жорж, а чей голос окажется круче на этот раз? Царь решил, что Тридевятое царство будет представлять Кот-ученый. Не один все же мультфильм прошли вместе, да и все равно он про книги забыл, орет, точнее поет целыми днями на крышах, как и положено коту в марте. И, конечно, вся компания во главе с Иваном и Волком отправляется поддержать пушистого певца. Ведь свои нужны рядом. А то шоу-бизнес — настоящий серпентарий, и кто знает, какие темные силы стоят за коварными соперниками и их стремлением стать звездой.

    Возраст: 6+ (зрителям, достигшим 6 лет)
    Дата российской премьеры: 26 декабря 2019, Наше Кино
    Продолжительность: 01: 28: 00
    Качество видео: WEBRip
    Субтитры: Отсутсвуют
    Видео: XviD, 720x400, ~2162 Kbps
    Аудио: AC3, 2 ch, 192 Kbps
    Общее
    Полное имя : D: MULTIvan_Carevich_i_seryi_volk_4_2019_WEB-DLRip.avi
    Формат : AVI
    Формат/Информация : Audio Video Interleave
    Размер файла : 1, 46 Гбайт
    Продолжительность : 1 ч. 28 м.
    Общий поток : 2364 Кбит/сек
    Программа кодирования : VirtualDubMod 1.5.10.3 |www.virtualdub-fr.org|| (build 2550/release)
    Библиотека кодирования : VirtualDubMod build 2550/release
    Видео
    Идентификатор : 0
    Формат : MPEG-4 Visual
    Профиль формата : Advanced Simple@L5
    Настройки формата : BVOP2/Custom Matrix
    Параметр BVOP формата : 2
    Параметр QPel формата : Нет
    Параметр GMC формата : Без точки перехода
    Параметр матрицы формата : Выборочная
    Идентификатор кодека : XVID
    Идентификатор кодека/Подсказка : XviD
    Продолжительность : 1 ч. 28 м.
    Битрейт : 2162 Кбит/сек
    Ширина : 720 пикселей
    Высота : 400 пикселей
    Соотношение сторон : 16: 9
    Частота кадров : 23, 976 (24000/1001) кадра/сек
    Цветовое пространство : YUV
    Субдискретизация насыщенности : 4: 2: 0
    Битовая глубина : 8 бит
    Тип развёртки : Прогрессивная
    Метод сжатия : С потерями
    Бит/(Пиксели*Кадры) : 0.313
    Размер потока : 1, 33 Гбайт (91%)
    Библиотека кодирования : XviD 67
    Аудио
    Идентификатор : 1
    Формат : AC-3
    Формат/Информация : Audio Coding 3
    Коммерческое название : Dolby Digital
    Идентификатор кодека : 2000
    Продолжительность : 1 ч. 28 м.
    Вид битрейта : Постоянный
    Битрейт : 192 Кбит/сек
    Каналы : 2 канала
    ChannelLayout : L R
    Частота : 48, 0 КГц
    Частота кадров : 31, 250 кадров/сек (1536 SPF)
    Метод сжатия : С потерями
    Размер потока : 121 Мбайт (8%)
    Выравнивание : Разделение по промежуткам
    Продолжительность промежутка : 42 мс. (1, 00 видеокадр)
    Время предзагрузки промежутка : 500 мс.
    ServiceKind/String : Complete Main

    Скриншоты для ознакомления



    Все одноименные релизы в Клубе
    Время раздачи: с 10: 00 до 2: 30 (до появления первых 3-5 скачавших)

    Онлайн видео Москва


    Иван Царевич и Серый Волк 4 (2019) WEBRip торрент скачать бесплатно
    Рейтинг →
     (голосов: 1, оценка 3/5, голосовать можно 1 раз )

    Другие торренты по теме:

  • Иван Царевич и Серый Волк 3 (2015) CamRip скачать через торрент бесплатно
  • Иван Царевич и Серый Волк 3 (2015) WEB-DLRip
  • Иван Царевич и Серый Волк 3 (2015) WEB-DL [H.264 / 1080p-LQ]
  • Иван Царевич и Серый Волк 3 (2015) WEB-DLRip [H.264]
  • Иван Царевич и Серый Волк 3 (2015) WEB-DL [H.264 / 720p-LQ]
  • Иван Царевич и Серый Волк 3 (2015) WEB-DL [H.264 / 1080p-LQ]
  • Иван Царевич и Серый Волк 3 (2015) WEB-DLRip
  • Иван Царевич и Серый Волк 3 (2015) WEB-DL [1080p] ATV


    • Комментарии (0):

      Информация

      Информация

        Посетители, находящиеся в группе Гости, не могут оставлять комментарии в данной новости.

        ↓ Меню




        Популярное