Подписывайся на наш канал в Telegram https://t.me/torrentok и получи доступ к торрентам без ограничений!
.
Авторизация | Регистрация
bitok.xyz
Торрент скачать бесплатно Мультфильмы торрент скачать Mirai Nikki | The Future Diary | Дневник Будущего [2011, TV, 26 ep + OVA] BDRip 1080p 10-bit raw+rus торрент скачать бесплатно


    Mirai Nikki | The Future Diary | Дневник Будущего [2011, TV, 26 ep + OVA] BDRip 1080p 10-bit raw+rus торрент скачать бесплатно

    Дата: 10-02-2020, 05:00 | .torrent скачали: 0

    Mirai Nikki | The Future Diary | Дневник Будущего [2011, TV, 26 ep + OVA] BDRip 1080p 10-bit raw+rusТип: TV
    Жанр: Триллер, Мистика, Драма
    Продолжительность: 26 Эпизодов по 23 Мин.
    Количество серий: 26 Эпизодов + ОВА
    Дата выпуска: c09.10.2011 по15.04.2012
    Автор оригинала: Эсуно Сакаэ
    Режиссер: Хосода Наото
    Производство: Asread/ Япония

    World-Art |AniDB |MyAnimelist |Shikimori

    Описание

    Второй класс средней школы: у Юкитэру Амано вечные проблемы в общении со сверстниками, а потому, считая себя сторонним наблюдателем, он записывает всё, что видит, в дневник на мобильный.
    Терзаемый одиночеством, Амано начинает выдумывать разные вещи, как, например, воображаемого друга по имени Деус Экс Машина, который несомненно является повелителем времени и пространства. Глядя на плачевное состояние Юкитэру, Деус даёт ему новые способности — в его дневнике теперь появляются события, которые только должны произойти в ближайшем будущем, а записаны они с поразительной точностью.
    Правда заключается в том, что такой мобильный дневник будущего есть не только у него одного, и теперь он вынужден участвовать в смертоносной игре, победитель которой станет преемником Деуса.
    Автор: acid_emily ©Shikimori
    Качество Видео: BDRip,
    TV
    Видео: AVC/x264 , 1920x1080, 23.976 fps, 8 037 kb/s, 0.162 bpp10-bit
    OVA
    Видео: AVC/x264 , 1280x720, 23.976 fps, 2 228 kb/s, 0.101 bpp10-bit
    Язык Озвучки: Японский и Русский
    Озвучка: Двухголосая закадровая
    TV
    Аудио №1: PCM2.0 , 48.0 kHz, 1 536 kb/s 16-bit(AniLibria) |Язык:
    Аудио №2: AC32.0 , 48.0 kHz, 192 kb/s(AniDub) |Язык:
    Аудио №3: AC32.0 , 48.0 kHz, 192 kb/s(AniMedia) |Язык:
    Аудио №4: AC32.0 , 48.0 kHz, 192 kb/s(MCA Sem) |Язык:
    Аудио №5: AC32.0 , 48.0 kHz, 192 kb/s(OpenDub) |Язык:
    Аудио №6: FLAC2.0 , 48.0 kHz, 681 kb/s 16-Bit(Original) |Язык:
    OVA
    Аудио №1: AAC2.0 , 48.0 kHz, 192 kb/s(AniDub) |Язык:
    Аудио №2: FLAC2.0 , 48.0 kHz, 723 kb/s 16-Bit(Original) |Язык:
    Субтитры: Надписи/Полные(antiBILLotic) - TV;(Timecraft GMC) - OVA

    Скриншоты для ознакомления





    01. Sign Up (Начало игры)
    02. Contract Conditions (Условия договора)
    03. Early Predicament (Первые неудачи)
    04. Handwritten Input (Рукописный ввод)
    05. Voice Memo (Голосовая заметка)
    06. Manners Mode (Беззвучный режим)
    07. Dial Tone (Гудок)
    08. New Model (Новая модель)
    09. Blocked Number (Номер заблокирован)
    10. Family Plan (Будущая семья)
    11. Termination of Service (Обслуживание прекращено)
    12. Reception Outside Range (Вне зоны действия сети)
    13. Restricted Call (Вызов запрещён)
    14. Deleted Memory (Форматирование памяти)
    15. Double Holder (Тариф Влюблённые)
    16. Repairing (Ремонт)
    17. Family Discount (Тариф Родные люди)
    18. Crossed Lines (Пересечение линий)
    19. Delete all Messages (Стереть все сообщения)
    20. Data transfer (Передача данных)
    21. PIN (Пин-код)
    22. Disconnection (Обрыв связи)
    23. Breach of contract (Разрыв договора)
    24. Data Retrieval (Восстановление данных)
    25. Reset (Перезагрузка)
    26. Initialization (Определения)
    27. Redial (Повторный вызов)

    General
    Unique ID : 18156761090135874740654984707663991526 (0xDA8DD6FD4C5924745496B42B3F012E6)
    Complete name : J: АнимеДневник Будущего (Mirai Nikki) BDRip (2011)1. Sign Up (Начало игры).mkv
    Format : Matroska
    Format version : Version 4
    File size : 1.95 GiB
    Duration : 25 min 20 s
    Overall bit rate mode : Variable
    Overall bit rate : 11.0 Mb/s
    Encoded date : UTC 2020-02-09 17: 11: 24
    Writing application : mkvmerge v43.0.0 (\'The Quartermaster\') 64-bit
    Writing library : libebml v1.3.10 + libmatroska v1.5.2
    Attachments : monotype_corsiva.ttf/ARIALN.TTF
    Video
    ID : 1
    Format : AVC
    Format/Info : Advanced Video Codec
    Format profile : High10@L5.1
    Format settings : CABAC/6 Ref Frames
    Format settings, CABAC : Yes
    Format settings, Reference : 6 frames
    Codec ID : V_MPEG4/ISO/AVC
    Duration : 25 min 20 s
    Bit rate : 8 037 kb/s
    Width : 1 920 pixels
    Height : 1 080 pixels
    Display aspect ratio : 16: 9
    Frame rate mode : Constant
    Frame rate : 23.976 (23976/1000) FPS
    Color space : YUV
    Chroma subsampling : 4: 2: 0
    Bit depth : 10 bits
    Scan type : Progressive
    Bits/(Pixel*Frame) : 0.162
    Stream size : 1.42 GiB (73%)
    Writing library : x264 core 125 r2208+677+32 26f090e tMod 10-bit@4: 2: 0 X86_64
    Encoding settings : cabac=1/ref=6/deblock=1: 0: 0/analyse=0x3: 0x113/me=umh/subme=10/psy=1/fade_compensate=0.00/psy_rd=0.70: 0.10/mixed_ref=1/me_range=32/chroma_me=1/trellis=2/8x8dct=1/cqm=0/deadzone=21, 11/fast_pskip=1/chroma_qp_offset=-4/threads=12/lookahead_threads=2/sliced_threads=0/nr=0/decimate=0/interlaced=0/bluray_compat=0/constrained_intra=0/fgo=0/bframes=9/b_pyramid=2/b_adapt=2/b_bias=0/direct=3/weightb=1/open_gop=0/weightp=2/keyint=480/keyint_min=4/scenecut=50/intra_refresh=0/rc=crf/mbtree=0/crf=17.0000/qcomp=0.70/qpmin=8/qpmax=42/qpstep=4/ip_ratio=1.40/pb_ratio=1.30/aq=3: 0.80
    Language : Japanese
    Default : Yes
    Forced : Yes
    Audio #1
    ID : 2
    Format : PCM
    Format settings : Little/Signed
    Codec ID : A_PCM/INT/LIT
    Duration : 25 min 20 s
    Bit rate mode : Constant
    Bit rate : 1 536 kb/s
    Channel(s) : 2 channels
    Sampling rate : 48.0 kHz
    Frame rate : 32.000 FPS (1500 SPF)
    Bit depth : 16 bits
    Stream size : 278 MiB (14%)
    Title : AniLibria
    Language : Russian
    Default : Yes
    Forced : No
    Audio #2
    ID : 3
    Format : AC-3
    Format/Info : Audio Coding 3
    Commercial name : Dolby Digital
    Codec ID : A_AC3
    Duration : 25 min 18 s
    Bit rate mode : Constant
    Bit rate : 192 kb/s
    Channel(s) : 2 channels
    Channel layout : L R
    Sampling rate : 48.0 kHz
    Frame rate : 31.250 FPS (1536 SPF)
    Compression mode : Lossy
    Stream size : 34.7 MiB (2%)
    Title : AniDub (OSLIKt NikaLenina)
    Language : Russian
    Service kind : Complete Main
    Default : No
    Forced : No
    Audio #3
    ID : 4
    Format : AC-3
    Format/Info : Audio Coding 3
    Commercial name : Dolby Digital
    Codec ID : A_AC3
    Duration : 25 min 20 s
    Bit rate mode : Constant
    Bit rate : 192 kb/s
    Channel(s) : 2 channels
    Channel layout : L R
    Sampling rate : 48.0 kHz
    Frame rate : 31.250 FPS (1536 SPF)
    Compression mode : Lossy
    Stream size : 34.8 MiB (2%)
    Title : AniMedia (Eladiel Jam)
    Language : Russian
    Service kind : Complete Main
    Default : No
    Forced : No
    Audio #4
    ID : 5
    Format : AC-3
    Format/Info : Audio Coding 3
    Commercial name : Dolby Digital
    Codec ID : A_AC3
    Duration : 25 min 20 s
    Bit rate mode : Constant
    Bit rate : 192 kb/s
    Channel(s) : 2 channels
    Channel layout : L R
    Sampling rate : 48.0 kHz
    Frame rate : 31.250 FPS (1536 SPF)
    Compression mode : Lossy
    Stream size : 34.8 MiB (2%)
    Title : MCA Sem (MifSnaiper KroshkaRu)
    Language : Russian
    Service kind : Complete Main
    Default : No
    Forced : No
    Audio #5
    ID : 6
    Format : AC-3
    Format/Info : Audio Coding 3
    Commercial name : Dolby Digital
    Codec ID : A_AC3
    Duration : 25 min 18 s
    Bit rate mode : Constant
    Bit rate : 192 kb/s
    Channel(s) : 2 channels
    Channel layout : L R
    Sampling rate : 48.0 kHz
    Frame rate : 31.250 FPS (1536 SPF)
    Compression mode : Lossy
    Stream size : 34.7 MiB (2%)
    Title : OpenDub (Flame comina)
    Language : Russian
    Service kind : Complete Main
    Default : No
    Forced : No
    Audio #6
    ID : 7
    Format : FLAC
    Format/Info : Free Lossless Audio Codec
    Codec ID : A_FLAC
    Duration : 25 min 20 s
    Bit rate mode : Variable
    Bit rate : 681 kb/s
    Channel(s) : 2 channels
    Channel layout : L R
    Sampling rate : 48.0 kHz
    Frame rate : 11.719 FPS (4096 SPF)
    Bit depth : 16 bits
    Compression mode : Lossless
    Stream size : 123 MiB (6%)
    Title : Original
    Writing library : libFLAC 1.2.1 (UTC 2007-09-17)
    Language : Japanese
    Default : No
    Forced : No
    Text #1
    ID : 8
    Format : ASS
    Codec ID : S_TEXT/ASS
    Codec ID/Info : Advanced Sub Station Alpha
    Duration : 25 min 5 s
    Bit rate : 1 625 b/s
    Count of elements : 2432
    Compression mode : Lossless
    Stream size : 299 KiB (0%)
    Title : Forced (antiBILLotic)
    Language : Russian
    Default : Yes
    Forced : No
    Text #2
    ID : 9
    Format : ASS
    Codec ID : S_TEXT/ASS
    Codec ID/Info : Advanced Sub Station Alpha
    Duration : 25 min 15 s
    Bit rate : 1 887 b/s
    Count of elements : 2785
    Compression mode : Lossless
    Stream size : 349 KiB (0%)
    Title : Full (antiBILLotic)
    Language : Russian
    Default : No
    Forced : No

    General
    Unique ID : 176163574384422535280333214469110673939 (0x8487DECC18057CE98BCFBE7B8D1CB213)
    Complete name : J: АнимеДневник Будущего (Mirai Nikki) BDRip (2011)27. Redial (Повторный вызов).mkv
    Format : Matroska
    Format version : Version 4
    File size : 675 MiB
    Duration : 30 min 0 s
    Overall bit rate mode : Variable
    Overall bit rate : 3 145 kb/s
    Encoded date : UTC 2019-06-20 08: 41: 02
    Writing application : mkvmerge v8.8.0 (\'Wind at my back\') 64bit
    Writing library : libebml v1.3.3 + libmatroska v1.4.4
    Video
    ID : 1
    Format : AVC
    Format/Info : Advanced Video Codec
    Format profile : High 10@L4
    Format settings : CABAC/9 Ref Frames
    Format settings, CABAC : Yes
    Format settings, Reference : 9 frames
    Codec ID : V_MPEG4/ISO/AVC
    Duration : 29 min 59 s
    Bit rate : 2 228 kb/s
    Width : 1 280 pixels
    Height : 720 pixels
    Display aspect ratio : 16: 9
    Frame rate mode : Constant
    Frame rate : 23.976 (24000/1001) FPS
    Color space : YUV
    Chroma subsampling : 4: 2: 0
    Bit depth : 10 bits
    Scan type : Progressive
    Bits/(Pixel*Frame) : 0.101
    Stream size : 478 MiB (71%)
    Writing library : x264 core 129 r2230kMod 1cffe9f
    Encoding settings : cabac=1/ref=9/deblock=1: -1: -1/analyse=0x3: 0x133/me=umh/subme=11/psy=1/fade_compensate=0.00/psy_rd=0.80: 0.00/mixed_ref=1/me_range=24/chroma_me=1/trellis=2/8x8dct=1/cqm=0/deadzone=21, 11/fast_pskip=0/chroma_qp_offset=-2/threads=6/lookahead_threads=1/sliced_threads=0/nr=0/decimate=0/interlaced=0/bluray_compat=0/constrained_intra=0/bframes=8/b_pyramid=2/b_adapt=2/b_bias=0/direct=1/weightb=1/open_gop=0/weightp=2/keyint=250/keyint_min=23/scenecut=40/intra_refresh=0/rc=crf/mbtree=0/crf=15.5000/qcomp=0.80/qpmin=0/qpmax=48/qpstep=4/ip_ratio=1.40/pb_ratio=1.30/aq=1: 0.90
    Language : Japanese
    Default : Yes
    Forced : No
    Color range : Limited
    Matrix coefficients : BT.709
    Audio #1
    ID : 2
    Format : AAC LC
    Format/Info : Advanced Audio Codec Low Complexity
    Codec ID : A_AAC-2
    Duration : 30 min 0 s
    Bit rate : 192 kb/s
    Channel(s) : 2 channels
    Channel layout : L R
    Sampling rate : 48.0 kHz
    Frame rate : 46.875 FPS (1024 SPF)
    Compression mode : Lossy
    Stream size : 41.2 MiB (6%)
    Title : OSLIKt Nika Lenina
    Language : Russian
    Default : Yes
    Forced : No
    Audio #2
    ID : 3
    Format : FLAC
    Format/Info : Free Lossless Audio Codec
    Codec ID : A_FLAC
    Duration : 29 min 59 s
    Bit rate mode : Variable
    Bit rate : 723 kb/s
    Channel(s) : 2 channels
    Sampling rate : 48.0 kHz
    Frame rate : 11.719 FPS (4096 SPF)
    Bit depth : 16 bits
    Compression mode : Lossless
    Stream size : 155 MiB (23%)
    Title : Original
    Writing library : libFLAC 1.2.1 (UTC 2007-09-17)
    Language : Japanese
    Default : No
    Forced : No
    Text
    ID : 4
    Format : ASS
    Codec ID : S_TEXT/ASS
    Codec ID/Info : Advanced Sub Station Alpha
    Duration : 28 min 18 s
    Bit rate : 205 b/s
    Count of elements : 530
    Compression mode : Lossless
    Stream size : 42.7 KiB (0%)
    Title : Full (Timecraft GMC)
    Language : Russian
    Default : Yes
    Forced : No
    Время раздачи: С 8: 00 по 18: 00 МСК (до появления первых 3-5 скачавших)
    Понравился релиз? Ставь Оценку и нажми Спасибо
    Это серьёзно меня мотивирует делать подобные релизы.



    Онлайн видео Mirai Nikki


    Mirai Nikki | The Future Diary | Дневник Будущего [2011, TV, 26 ep + OVA] BDRip 1080p 10-bit raw+rus торрент скачать бесплатно
    Рейтинг →
     (голосов: 1, оценка 5/5, голосовать можно 1 раз )

    Другие торренты по теме:

  • Mirai Nikki | The Future Diary | Дневник будущего [2012, TV, 26 эп. + OVA] BDRip 1080p rus


    • Комментарии (0):

      Информация

      Информация

        Посетители, находящиеся в группе Гости, не могут оставлять комментарии в данной новости.

        ↓ Меню




        Популярное

        Фиксики против Кработов (2019) WEB-DLRip

        (скачиваний: 134)
        Рик и Морти / Rick and Morty (2015) WEB-DL [H.264 / 1080p] (Сезон 2, серии 1-10 из 10) Сыендук [EN / RU Sub] скачать через торрент бесплатно

        (скачиваний: 109)
        М.Ю. Демидова | ЕГЭ-2020. Физика. 30 типовых вариантов (2020) [PDF]

        (скачиваний: 80)
        Малышарики (2015-2019) WEB-DL [H.264 / 1080p-LQ] (серии 1-154 из 208) [Обновляемая]

        (скачиваний: 68)
        Рик и Морти / Rick and Morty (2013) BDRip [H.264 / 720p-LQ] (сезон 1, серии 1-11 из 11) Сыендук

        (скачиваний: 65)
        Рик и Морти / Rick and Morty (2013) BDRip [H.264 / 1080p] (Сезон 1, серии 1-11 из 11) Сыендук [EN Sub] скачать через торрент бесплатно

        (скачиваний: 46)
        Фиксики против Кработов (2019) WEB-DL [H.264 / 1080p-LQ]

        (скачиваний: 32)
        Свинка Пеппа / Peppa Pig (2004-2012) SATRip (1-4 сезоны: 208 серий из 209) скачать через торрент бесплатно

        (скачиваний: 28)
        Рик и Морти / Rick and Morty (2017) WEBRip [H.264 / 720p-LQ] (Сезон 3, серии 1 из ) Сыендук

        (скачиваний: 26)
        Жила-была царевна (2015-2019) WEB-DLRip [H.264 / 720p-LQ] (сезон 1, серии 1-18 из 26) [Обновляемая]

        (скачиваний: 21)