Подписывайся на наш канал в Telegram https://t.me/torrentok и получи доступ к торрентам без ограничений!
.
Авторизация | Регистрация
bitok.xyz
Торрент скачать бесплатно Мультфильмы торрент скачать Usagi Drop | Брошенный Кролик [2011, TV, 11 ep + 4 sp] BDRip 1080p 10-bit raw+rus торрент скачать бесплатно


    Usagi Drop | Брошенный Кролик [2011, TV, 11 ep + 4 sp] BDRip 1080p 10-bit raw+rus торрент скачать бесплатно

    Дата: 10-02-2020, 05:00 | .torrent скачали: 0

    Usagi Drop | Брошенный Кролик [2011, TV, 11 ep + 4 sp] BDRip 1080p 10-bit raw+rusТип: TV
    Жанр: Комедия, Драма, Повседневность
    Продолжительность: 11 серий по 25 мин.
    Количество серий: 11Эпизодов + 4SP
    Дата выпуска: c08.07.2011 по16.09.2011
    Автор оригинала: Унита Юми
    Режиссер: Камэй Канта
    Производство: Production I.G/ Япония

    World-Art |AniDB |MyAnimelist |Shikimori

    Описание

    Вернувшегося домой на похороны деда, тридцатилетнего холостяка Дайкичи Кавачи просто сбивает с ног шокирующее открытие: у его покойного деда есть незаконнорождённая дочь, которую родила молодая любовница. Остальные члены семьи шокированы в равной степени и возмущены таким сюрпризом — никто не хочет брать на себя ответственность опеки над маленькой молчаливой девочкой Рин Кагой. Рассерженный таким отношением, Дайкичи решает сам заботиться о девочке. Но как же у него получится воспитывать её, если он сам — всего лишь переросший подросток?
    Автор: Eleven Zwolf ©Shikimori
    Качество Видео: BDRip
    Видео: AVC/x264 , 1920x1080, 23.976 fps, 10.2 Mb/s, 0.205 bpp10-bit
    Язык Озвучки: Японский и Русский
    Озвучка: Двухголосая закадровая
    Аудио №1: AAC2.0 , 48.0 kHz, 217 kb/s(AniDub) |Язык:
    Аудио №2: AAC2.0 , 48.0 kHz, 320 kb/s(AnimeReactor) |Язык:
    Аудио №3: AAC2.0 , 48.0 kHz, 181 kb/s(AniMedia) |Язык:
    Аудио №4: AAC2.0 , 48.0 kHz, 163 kb/s(AniFilm) |Язык:
    Аудио №5: AAC2.0 , 48.0 kHz, 163 kb/s(Anything-Group) |Язык:
    Аудио №6: FLAC2.0 , 48.0 kHz, 670 kb/s 16-Bit(Original) |Язык:
    Субтитры: Полные(Dreamers Team)

    Скриншоты для ознакомления





    01. The Bellflower Girl (Девочка-колокольчик)
    02. Pinky Promise (Твёрдое обещание)
    02.5. Leaf Aquarium (Наш Цветочный Аквариум)
    03. Daikichi`s Decision (Решение Дайкичи)
    03.5. Dear Santa (Санте)
    04. Letter (Письмо)
    05. Daikichi is My Daikichi (Дайкичи - мой Дайкичи)
    06. My Tree (Моё дерево)
    06.5. Full Blossom in the Skies (Цвет с неба)
    07. Secretly Leaving Home (Тайный побег из дома)
    08. Grandpa\'s Precious Thing (Дедушкино сокровище)
    08.5. The Road Home (Возвращаясь домой)
    09. A Typhoon Came (Тайфун на подходе!)
    10. Stomach Flu (Желудочный грипп)
    11. The First Step (Первый шаг)

    General
    Unique ID : 307824404602014194599446438196384163772 (0xE794D2E76A5921F67A0441C15BE0E7BC)
    Complete name : J: АнимеБрошенная Зайка (Usagi Drop) BDRip (2011)1. The Bellflower Girl (Девочка-колокольчик).mkv
    Format : Matroska
    Format version : Version 4
    File size : 1.90 GiB
    Duration : 22 min 52 s
    Overall bit rate mode : Variable
    Overall bit rate : 11.9 Mb/s
    Movie name : Usagi Drop | Bunny Drop | Брошенная зайка | Покинуте кроленя
    Encoded date : UTC 2020-02-07 11: 38: 38
    Writing application : mkvmerge v43.0.0 (\'The Quartermaster\') 64-bit
    Writing library : libebml v1.3.10 + libmatroska v1.5.2
    Attachments : AGOpusHighResolution Roman.TTF/AGPresquire Bold.ttf/ALEX__.ttf/appendix.TTF/BalticaCTT Bold.Ttf/BalticaCTT Italic.Ttf/BalticaCTT Regular.Ttf/BenguiatGothicCTT Regular.Ttf/BenguiatGothicCTT.TTF/Betina Bold.Ttf/BSSYM7.TTF/Calligrapher.ttf/Calligrapher_0.ttf/Calligrapher_1.ttf/chancellor.ttf/chancellor_0.ttf/constan.ttf/Derby Regular.ttf/DINB.TTF/DYNM.TTF/EpsilonCTT.TTF/floydian_cyr.ttf/FRADM.TTF/GaramondCTT Bold.Ttf/GaramondCTT BoldItalic.Ttf/GaramondCTT Italic.Ttf/GaramondCTT Regular.Ttf/georgia.ttf/georgia_0.ttf/marlett.ttf/OUTLOOK.TTF/REFSPCL.TTF/symbol.ttf/verdana.ttf/webdings.ttf/wingding.ttf/WINGDNG2.TTF/WINGDNG3.TTF/a_RubricaCn Bold.Ttf/a_RubricaCn BoldItalic.Ttf/AGLECOO.TTF/AGLECOR.TTF/AVGARDNEclipse.ttf/chinrg.ttf/FRABK.TTF/HANDWRITTEN_CRYSTAL_V2.TTF/kaiu.ttf/PoplarStd.otf/Vesta-Bold.otf
    Video
    ID : 1
    Format : AVC
    Format/Info : Advanced Video Codec
    Format profile : High10@L4.1
    Format settings : CABAC/4 Ref Frames
    Format settings, CABAC : Yes
    Format settings, Reference : 4 frames
    Codec ID : V_MPEG4/ISO/AVC
    Duration : 22 min 51 s
    Bit rate : 10.2 Mb/s
    Width : 1 920 pixels
    Height : 1 080 pixels
    Display aspect ratio : 16: 9
    Frame rate mode : Constant
    Frame rate : 23.976 (24000/1001) FPS
    Color space : YUV
    Chroma subsampling : 4: 2: 0
    Bit depth : 10 bits
    Scan type : Progressive
    Bits/(Pixel*Frame) : 0.205
    Stream size : 1.63 GiB (86%)
    Writing library : x264 core 119 r2106+636 fcb18f7
    Encoding settings : cabac=1/ref=4/deblock=1: -2: -2/analyse=0x3: 0x133/me=umh/subme=9/psy=1/fade_compensate=0.00/psy_rd=0.80: 0.00/mixed_ref=1/me_range=24/chroma_me=1/trellis=2/8x8dct=1/cqm=0/deadzone=21, 11/fast_pskip=1/chroma_qp_offset=-2/threads=12/sliced_threads=0/nr=0/decimate=0/interlaced=0/bluray_compat=0/constrained_intra=0/fgo=0/bframes=8/b_pyramid=2/b_adapt=2/b_bias=0/direct=3/weightb=1/open_gop=0/weightp=2/keyint=250/keyint_min=23/scenecut=40/intra_refresh=0/rc=2pass/mbtree=0/bitrate=10187/ratetol=1.0/qcomp=0.80/qpmin=8/qpmax=38/qpstep=4/cplxblur=20.0/qblur=0.5/ip_ratio=1.40/pb_ratio=1.30/aq=1: 1.00
    Language : Japanese
    Default : Yes
    Forced : No
    Audio #1
    ID : 2
    Format : AAC LC
    Format/Info : Advanced Audio Codec Low Complexity
    Codec ID : A_AAC-2
    Duration : 22 min 52 s
    Bit rate : 217 kb/s
    Channel(s) : 2 channels
    Channel layout : L R
    Sampling rate : 48.0 kHz
    Frame rate : 46.875 FPS (1024 SPF)
    Compression mode : Lossy
    Stream size : 35.5 MiB (2%)
    Title : AniDub (OSLIKt Chihiro)
    Language : Russian
    Default : Yes
    Forced : No
    Audio #2
    ID : 3
    Format : AAC LC
    Format/Info : Advanced Audio Codec Low Complexity
    Codec ID : A_AAC-2
    Duration : 22 min 51 s
    Bit rate : 320 kb/s
    Channel(s) : 2 channels
    Channel layout : L R
    Sampling rate : 48.0 kHz
    Frame rate : 46.875 FPS (1024 SPF)
    Compression mode : Lossy
    Stream size : 52.3 MiB (3%)
    Title : AnimeReactor (Valkrist Keneretta)
    Language : Russian
    Default : No
    Forced : No
    Audio #3
    ID : 4
    Format : AAC LC
    Format/Info : Advanced Audio Codec Low Complexity
    Codec ID : A_AAC-2
    Duration : 22 min 52 s
    Bit rate : 181 kb/s
    Channel(s) : 2 channels
    Channel layout : L R
    Sampling rate : 48.0 kHz
    Frame rate : 46.875 FPS (1024 SPF)
    Compression mode : Lossy
    Stream size : 29.6 MiB (2%)
    Title : AniMedia (Eladiel Jam)
    Language : Russian
    Default : No
    Forced : No
    Audio #4
    ID : 5
    Format : AAC LC
    Format/Info : Advanced Audio Codec Low Complexity
    Codec ID : A_AAC-2
    Duration : 22 min 50 s
    Bit rate : 163 kb/s
    Channel(s) : 2 channels
    Channel layout : L R
    Sampling rate : 48.0 kHz
    Frame rate : 46.875 FPS (1024 SPF)
    Compression mode : Lossy
    Stream size : 26.6 MiB (1%)
    Title : AniFilm (E-Rotic Lali)
    Language : Russian
    Default : No
    Forced : No
    Audio #5
    ID : 6
    Format : AAC LC
    Format/Info : Advanced Audio Codec Low Complexity
    Codec ID : A_AAC-2
    Duration : 22 min 50 s
    Bit rate : 163 kb/s
    Channel(s) : 2 channels
    Channel layout : L R
    Sampling rate : 48.0 kHz
    Frame rate : 46.875 FPS (1024 SPF)
    Compression mode : Lossy
    Stream size : 26.6 MiB (1%)
    Title : Anything-Group (Mangaka Milirina)
    Language : Russian
    Default : No
    Forced : No
    Audio #6
    ID : 7
    Format : FLAC
    Format/Info : Free Lossless Audio Codec
    Codec ID : A_FLAC
    Duration : 22 min 52 s
    Bit rate mode : Variable
    Bit rate : 570 kb/s
    Channel(s) : 2 channels
    Channel layout : L R
    Sampling rate : 48.0 kHz
    Frame rate : 11.719 FPS (4096 SPF)
    Bit depth : 16 bits
    Compression mode : Lossless
    Stream size : 93.3 MiB (5%)
    Title : Original
    Writing library : libFLAC 1.2.1 (UTC 2007-09-17)
    Language : Japanese
    Default : No
    Forced : No
    Text
    ID : 8
    Format : ASS
    Codec ID : S_TEXT/ASS
    Codec ID/Info : Advanced Sub Station Alpha
    Duration : 22 min 19 s
    Bit rate : 110 b/s
    Count of elements : 222
    Compression mode : Lossless
    Stream size : 18.1 KiB (0%)
    Title : Full (Dreamers Team)
    Language : Russian
    Default : No
    Forced : No
    Menu
    00: 00: 00.000 : ja: 00: 00: 00.000
    00: 02: 29.024 : ja: 00: 02: 29.024
    00: 03: 58.989 : ja: 00: 03: 58.989
    00: 11: 41.993 : ja: 00: 11: 41.993
    00: 20: 25.057 : ja: 00: 20: 25.057
    00: 21: 55.022 : ja: 00: 21: 55.022
    00: 22: 51.996 : ja: 00: 22: 51.996
    Время раздачи: С 8: 00 по 18: 00 МСК (до появления первых 3-5 скачавших)
    Понравился релиз? Ставь Оценку и нажми Спасибо
    Это серьёзно меня мотивирует делать подобные релизы.



    Онлайн видео Usagi Drop


    Usagi Drop | Брошенный Кролик [2011, TV, 11 ep + 4 sp] BDRip 1080p 10-bit raw+rus торрент скачать бесплатно
    Рейтинг →
     (голосов: 1, оценка 3/5, голосовать можно 1 раз )

    Другие торренты по теме:

  • Stan Sakai | Артбук по комиксу Usagi Yojimbo / The Art of Usagi Yojimbo: 20th Anniversary Edition (2004) [CBZ] [EN]
  • Stan Sakai | Артбук по комиксу Usagi Yojimbo / Usagi Yojimbo: 35 Years of Covers (2019) [CBR] [EN]
  • Gochuumon wa Usagi Desuka / GochiUsa / Is the Order a Rabbit / Кролика заказывали [2014, TV, 12] BDrip 1080p Hi10p raw скачать через торрент бесплатно
  • Urawa no Usagi-chan / Усаги-чан из Уравы [2015, TV, 1 из 12] TVRip 720p raw скачать через торрент бесплатно
  • Брошенный кролик / Usagi doroppu (2011) HDRip скачать через торрент бесплатно
  • Gochuumon wa Usagi Desuka | Кролика заказывали [ТВ-2] [2015, TV, 1 из 12] HDTV 720p Hi10p raw скачать через торрент бесплатно
  • Gochuumon wa Usagi Desuka / Кролика заказывали [TV-2] [2015, TV, 6 из 12] HDTV 720p rus скачать через торрент бесплатно
  • Urawa no Usagi-chan / Усаги-чан из Уравы [2015, TV, 13 из 13] BDRip 1080p raw


    • Комментарии (0):

      Информация

      Информация

        Посетители, находящиеся в группе Гости, не могут оставлять комментарии в данной новости.