Подписывайся на наш канал в Telegram https://t.me/torrentok и получи доступ к торрентам без ограничений!
.
Авторизация | Регистрация
bitok.xyz
Торрент скачать бесплатно Мультфильмы торрент скачать Bougyaku Sareta Tamashii no Jukyou | Corpse Party: Tortured Souls | Вечеринка Мёртвых: Истязаемые Души [2012-2013, OVA, 4 ep + 1 ep] BDRip 1080p raw+rus торрент скачать бесплатно

    Bougyaku Sareta Tamashii no Jukyou | Corpse Party: Tortured Souls | Вечеринка Мёртвых: Истязаемые Души [2012-2013, OVA, 4 ep + 1 ep] BDRip 1080p raw+rus торрент скачать бесплатно

    Дата: 10-02-2020, 05:00 | .torrent скачали: 0

    Bougyaku Sareta Tamashii no Jukyou | Corpse Party: Tortured Souls | Вечеринка Мёртвых: Истязаемые Души [2012-2013, OVA, 4 ep + 1 ep] BDRip 1080p raw+rusТип: OVA
    Жанр: Триллер, Ужасы
    Продолжительность: 4 Эпизода по 29 мин. + 11 Мин.
    Количество серий: 4 Эпизода + 1 Эпизод
    Дата выпуска: 02.08.2012; 24.07.2013
    Автор оригинала: Кэдоин Макото
    Режиссер: Иванага Акира
    Производство: Asread/ Япония

    World-Art |AniDB |MyAnimelist |Shikimori

    Описание

    Эта история начинается в начальной школе Небесное воинство, где происходят таинственные исчезновения учеников. Весь город взбудоражен этими событиями, и вскоре удаётся найти виновника — сумасшедшего учителя, перерезавшего своих жертв ножницами.
    После этих трагических событий школу сносят, а на её месте возводят другую под названием Академия Кисараги. Но события прошлого продолжают влиять на это место.
    Однажды ночью группа учеников, тайно пробравшихся в школу для испытания на храбрость, попадет в таинственное другое измерение. Там заперты души жертв и убийцы из старой начальной школы, и они хотят, чтобы их страдания пережили другие.
    Сумеют ли ученики выбраться из этого измерения? И какие шокирующие открытия им предстоит там сделать?
    Автор: Эстэр ©Shikimori
    Качество Видео: BDRip
    Tortured Souls
    Видео: AVC/x264 , 1920x1080, 23.976 fps, 8 243 kb/s, 0.163 bpp8-bit
    Missing Footage
    Видео: AVC/x264 , 1920x1080, 23.976 fps, 10.2 Mb/s, 0.206 bpp10-bit
    Язык Озвучки: Японский и Русский
    Озвучка: Двухголосая, Многоголосая закадровая
    Tortured Souls
    Аудио №1: Vorbis2.0 , 48.0 kHz, 288 kb/s(AniLibria) |Язык:
    Аудио №2: AC32.0 , 48.0 kHz, 192 kb/s(AniFilm) |Язык:
    Аудио №3: AAC2.0 , 48.0 kHz, 192 kb/s(AniDub) |Язык:
    Аудио №4: FLAC2.0 , 48.0 kHz, 720 kb/s 16-Bit(Original) |Язык:
    Missing Footage
    Аудио №1: AAC2.0 , 48.0 kHz, 221 kb/s(AniLibria) |Язык:
    Аудио №2: AAC2.0 , 48.0 kHz, 130 kb/s(AniFilm) |Язык:
    Аудио №3: AAC2.0 , 48.0 kHz, 192 kb/s(AniDub) |Язык:
    Аудио №4: AC32.0 , 48.0 kHz, 192 kb/s(Original) |Язык:
    Субтитры: Надписи/Полные(Русские)

    Скриншоты для ознакомления





    00. Пропавшая Запись (Missing Footage)
    01. Всеобщая Разлука (Multiple Separation)
    02. Сорванные Петли (Hinged Break)
    03. Недостижимые Чувства (Unreachable Feelings)
    04. Горькая Правда (Sorrowful Truth)

    General
    Unique ID : 69213755245620371974944326792611422530 (0x34121599DE6F977C6FD833C825D4E142)
    Complete name : J: АнимеВечеринка Мертвецов. Истязаемые Души (Corpse Party. Tortured Souls) BDRip (2013)1. Всеобщая разлука (Multiple Separation).mkv
    Format : Matroska
    Format version : Version 4
    File size : 1.97 GiB
    Duration : 29 min 17 s
    Overall bit rate mode : Variable
    Overall bit rate : 9 632 kb/s
    Encoded date : UTC 2019-08-06 06: 03: 32
    Writing application : mkvmerge v35.0.0 (\'All The Love In The World\') 64-bit
    Writing library : libebml v1.3.9 + libmatroska v1.5.2
    Attachments : constan_0.ttf/GOTHIC.TTF/GOTHIC_0.TTF/GOTHIC_1.TTF/SCAR6.TTF/SCAR6_0.TTF/arial.ttf/arial_0.ttf/arial_1.ttf/constan.ttf
    Video
    ID : 1
    Format : AVC
    Format/Info : Advanced Video Codec
    Format profile : High@L4.1
    Format settings : CABAC/4 Ref Frames
    Format settings, CABAC : Yes
    Format settings, Reference : 4 frames
    Codec ID : V_MPEG4/ISO/AVC
    Duration : 29 min 17 s
    Bit rate : 8 243 kb/s
    Width : 1 920 pixels
    Height : 1 080 pixels
    Display aspect ratio : 16: 9
    Frame rate mode : Constant
    Frame rate : 23.976 (24000/1001) FPS
    Color space : YUV
    Chroma subsampling : 4: 2: 0
    Bit depth : 8 bits
    Scan type : Progressive
    Bits/(Pixel*Frame) : 0.166
    Stream size : 1.69 GiB (86%)
    Writing library : x264 core 130 r2273 b3065e6
    Encoding settings : cabac=1/ref=3/deblock=1: 0: 0/analyse=0x3: 0x113/me=hex/subme=7/psy=1/psy_rd=1.00: 0.00/mixed_ref=1/me_range=16/chroma_me=1/trellis=1/8x8dct=1/cqm=0/deadzone=21, 11/fast_pskip=1/chroma_qp_offset=-2/threads=12/lookahead_threads=2/sliced_threads=0/nr=0/decimate=1/interlaced=0/bluray_compat=0/constrained_intra=0/bframes=3/b_pyramid=2/b_adapt=1/b_bias=0/direct=1/weightb=1/open_gop=0/weightp=2/keyint=240/keyint_min=24/scenecut=40/intra_refresh=0/rc_lookahead=40/rc=crf/mbtree=1/crf=15.0/qcomp=0.60/qpmin=0/qpmax=69/qpstep=4/vbv_maxrate=62500/vbv_bufsize=78125/crf_max=0.0/nal_hrd=none/ip_ratio=1.40/aq=1: 1.00
    Language : Japanese
    Default : Yes
    Forced : No
    Color range : Limited
    Color primaries : BT.709
    Transfer characteristics : BT.709
    Matrix coefficients : BT.709
    Audio #1
    ID : 2
    Format : Vorbis
    Format settings, Floor : 1
    Codec ID : A_VORBIS
    Duration : 29 min 17 s
    Bit rate mode : Variable
    Bit rate : 288 kb/s
    Channel(s) : 2 channels
    Sampling rate : 48.0 kHz
    Frame rate : 95.016 FPS (505 SPF)
    Compression mode : Lossy
    Stream size : 55.8 MiB (3%)
    Title : Sedrix, Aemi, Kona_chan (AniLibria)
    Writing application : libsndfile
    Writing library : libVorbis (Schaufenugget) (20101101 (Schaufenugget))
    Language : Russian
    Default : Yes
    Forced : No
    Audio #2
    ID : 3
    Format : AC-3
    Format/Info : Audio Coding 3
    Commercial name : Dolby Digital
    Codec ID : A_AC3
    Duration : 29 min 17 s
    Bit rate mode : Constant
    Bit rate : 192 kb/s
    Channel(s) : 2 channels
    Channel layout : L R
    Sampling rate : 48.0 kHz
    Frame rate : 31.250 FPS (1536 SPF)
    Compression mode : Lossy
    Stream size : 40.2 MiB (2%)
    Title : DemonOFmooN MezIdA (AniFilm)
    Language : Russian
    Service kind : Complete Main
    Default : No
    Forced : No
    Audio #3
    ID : 4
    Format : AAC LC
    Format/Info : Advanced Audio Codec Low Complexity
    Codec ID : A_AAC-2
    Duration : 29 min 17 s
    Bit rate : 192 kb/s
    Channel(s) : 2 channels
    Channel layout : L R
    Sampling rate : 48.0 kHz
    Frame rate : 46.875 FPS (1024 SPF)
    Compression mode : Lossy
    Stream size : 39.7 MiB (2%)
    Title : Kapets, Trina_D (AniDUB)
    Language : Russian
    Default : No
    Forced : No
    Audio #4
    ID : 5
    Format : FLAC
    Format/Info : Free Lossless Audio Codec
    Codec ID : A_FLAC
    Duration : 29 min 17 s
    Bit rate mode : Variable
    Bit rate : 720 kb/s
    Channel(s) : 2 channels
    Channel layout : L R
    Sampling rate : 48.0 kHz
    Frame rate : 10.417 FPS (4608 SPF)
    Bit depth : 16 bits
    Compression mode : Lossless
    Stream size : 151 MiB (7%)
    Title : Original
    Language : Japanese
    Default : No
    Forced : No
    Text #1
    ID : 6
    Format : ASS
    Codec ID : S_TEXT/ASS
    Codec ID/Info : Advanced Sub Station Alpha
    Duration : 17 min 29 s
    Bit rate : 6 b/s
    Count of elements : 12
    Compression mode : Lossless
    Stream size : 820 Bytes (0%)
    Title : Forced
    Language : Russian
    Default : Yes
    Forced : No
    Text #2
    ID : 7
    Format : ASS
    Codec ID : S_TEXT/ASS
    Codec ID/Info : Advanced Sub Station Alpha
    Duration : 26 min 24 s
    Bit rate : 131 b/s
    Count of elements : 382
    Compression mode : Lossless
    Stream size : 25.4 KiB (0%)
    Title : Full
    Language : Russian
    Default : No
    Forced : No
    Menu
    00: 00: 00.000 : : Prologue
    00: 09: 33.000 : : Opening
    00: 11: 41.000 : : Multiple Separation
    00: 26: 59.000 : : Title
    00: 27: 09.000 : : Ending

    General
    Unique ID : 54116431953193887001342182974023437449 (0x28B67217F78328CA7EECBA0FE39E8C89)
    Complete name : J: АнимеВечеринка Мертвецов. Истязаемые Души (Corpse Party. Tortured Souls) BDRip (2013)0. Пропавшая Запись (Missing Footage).mkv
    Format : Matroska
    Format version : Version 4
    File size : 900 MiB
    Duration : 11 min 28 s
    Overall bit rate : 11.0 Mb/s
    Encoded date : UTC 2019-08-06 10: 23: 44
    Writing application : mkvmerge v35.0.0 (\'All The Love In The World\') 64-bit
    Writing library : libebml v1.3.9 + libmatroska v1.5.2
    Video
    ID : 1
    Format : AVC
    Format/Info : Advanced Video Codec
    Format profile : High 10@L5
    Format settings : CABAC/10 Ref Frames
    Format settings, CABAC : Yes
    Format settings, Reference : 10 frames
    Codec ID : V_MPEG4/ISO/AVC
    Duration : 11 min 27 s
    Bit rate : 10.2 Mb/s
    Width : 1 920 pixels
    Height : 1 080 pixels
    Display aspect ratio : 16: 9
    Frame rate mode : Constant
    Frame rate : 23.976 (24000/1001) FPS
    Color space : YUV
    Chroma subsampling : 4: 2: 0
    Bit depth : 10 bits
    Scan type : Progressive
    Bits/(Pixel*Frame) : 0.206
    Stream size : 840 MiB (93%)
    Writing library : x264 core 125 r2200+666+30 20c70fc tMod 10-bit@4: 2: 0 X86
    Encoding settings : cabac=1/ref=10/deblock=1: -2: -2/analyse=0x3: 0x133/me=umh/subme=11/psy=1/fade_compensate=0.00/psy_rd=0.60: 0.00/mixed_ref=1/me_range=48/chroma_me=1/trellis=2/8x8dct=1/cqm=0/deadzone=21, 11/fast_pskip=1/chroma_qp_offset=-2/threads=18/lookahead_threads=3/sliced_threads=0/nr=0/decimate=1/interlaced=0/bluray_compat=0/constrained_intra=0/fgo=0/bframes=11/b_pyramid=2/b_adapt=2/b_bias=0/direct=3/weightb=1/open_gop=0/weightp=2/keyint=600/keyint_min=1/scenecut=40/intra_refresh=0/rc=crf/mbtree=0/crf=16.0000/qcomp=0.60/qpmin=8/qpmax=36/qpstep=9/ip_ratio=1.40/pb_ratio=1.30/aq=4: 1.00
    Language : Japanese
    Default : Yes
    Forced : No
    Audio #1
    ID : 2
    Format : AAC LC
    Format/Info : Advanced Audio Codec Low Complexity
    Codec ID : A_AAC-2
    Duration : 11 min 28 s
    Bit rate : 221 kb/s
    Channel(s) : 2 channels
    Channel layout : L R
    Sampling rate : 48.0 kHz
    Frame rate : 46.875 FPS (1024 SPF)
    Compression mode : Lossy
    Stream size : 18.2 MiB (2%)
    Title : Sedrix, Aemi, Kona_chan (AniLibria)
    Language : Russian
    Default : Yes
    Forced : No
    Audio #2
    ID : 3
    Format : AAC LC
    Format/Info : Advanced Audio Codec Low Complexity
    Codec ID : A_AAC-2
    Duration : 11 min 28 s
    Bit rate : 130 kb/s
    Channel(s) : 2 channels
    Channel layout : L R
    Sampling rate : 48.0 kHz
    Frame rate : 46.875 FPS (1024 SPF)
    Compression mode : Lossy
    Stream size : 10.6 MiB (1%)
    Title : DemonOFmooN MezIdA (AniFilm)
    Language : Russian
    Default : No
    Forced : No
    Audio #3
    ID : 4
    Format : AAC LC
    Format/Info : Advanced Audio Codec Low Complexity
    Codec ID : A_AAC-2
    Duration : 11 min 27 s
    Bit rate : 192 kb/s
    Channel(s) : 2 channels
    Channel layout : L R
    Sampling rate : 48.0 kHz
    Frame rate : 46.875 FPS (1024 SPF)
    Compression mode : Lossy
    Stream size : 15.5 MiB (2%)
    Title : Kapets, Trina_D (AniDUB)
    Language : Russian
    Default : No
    Forced : No
    Audio #4
    ID : 5
    Format : AC-3
    Format/Info : Audio Coding 3
    Commercial name : Dolby Digital
    Codec ID : A_AC3
    Duration : 11 min 27 s
    Bit rate mode : Constant
    Bit rate : 192 kb/s
    Channel(s) : 2 channels
    Channel layout : L R
    Sampling rate : 48.0 kHz
    Frame rate : 31.250 FPS (1536 SPF)
    Compression mode : Lossy
    Stream size : 15.7 MiB (2%)
    Title : Original
    Language : Japanese
    Service kind : Complete Main
    Default : No
    Forced : No
    Text
    ID : 6
    Format : ASS
    Codec ID : S_TEXT/ASS
    Codec ID/Info : Advanced Sub Station Alpha
    Duration : 8 min 45 s
    Bit rate : 117 b/s
    Count of elements : 96
    Compression mode : Lossless
    Stream size : 7.56 KiB (0%)
    Title : Full
    Language : Russian
    Default : No
    Forced : No
    Время раздачи: С 8: 00 по 18: 00 МСК (до появления первых 3-5 скачавших)
    Понравился релиз? Ставь Оценку и нажми Спасибо
    Это серьёзно меня мотивирует делать подобные релизы.

    За ретайминг звука и субтитров огромное спасибо DS2902
    Полный список ретаймов


    Онлайн видео Bougyaku Sareta Tamashii no Jukyou


    Bougyaku Sareta Tamashii no Jukyou | Corpse Party: Tortured Souls | Вечеринка Мёртвых: Истязаемые Души [2012-2013, OVA, 4 ep + 1 ep] BDRip 1080p raw+rus торрент скачать бесплатно
    Рейтинг →
     (голосов: 1, оценка 4/5, голосовать можно 1 раз )

    Другие торренты по теме:



      Комментарии (0):

      Информация

      Информация

        Посетители, находящиеся в группе Гости, не могут оставлять комментарии в данной новости.

        ↓ Меню




        Популярное