Подписывайся на наш канал в Telegram https://t.me/torrentok и получи доступ к торрентам без ограничений!
.
Авторизация | Регистрация
bitok.xyz
Торрент скачать бесплатно Мультфильмы торрент скачать Король Лев / The Lion King (2019) UHD BDRemux [H.265 / 2160p] [4K, HDR, 10-bit] торрент скачать бесплатно


    Король Лев / The Lion King (2019) UHD BDRemux [H.265 / 2160p] [4K, HDR, 10-bit] торрент скачать бесплатно

    Дата: 11-02-2020, 05:00 | .torrent скачали: 0

    Король Лев / The Lion King (2019) UHD BDRemux [H.265 / 2160p] [4K, HDR, 10-bit]Производство: США/Fairview Entertainment, Walt Disney Pictures
    Жанр: Компьютерная анимация, Приключения, Музыкальный, Детский
    Режиссер: Джон Фавро

    Описание

    История об отважном львенке по имени Симба. Знакомые с детства герои взрослеют, влюбляются, познают себя и окружающий мир, совершают ошибки и делают правильный выбор.

    Возраст: 6+ (зрителям, достигшим 6 лет)
    Рейтинг MPAA: PG (рекомендуется присутствие родителей)
    Дата мировой премьеры: 9 июля 2019
    Дата российской премьеры: 18 июля 2019, WDSSPR 3D
    Релиз от: selezen
    Продолжительность: 01: 58: 14
    Качество видео: UHD BDRemux
    Перевод: Дублированный
    Субтитры: Русские, Английские
    Видео: HEVC/H.265, 3840x2160, ~54, 3 Mbps
    Аудио 1: AC3, 6 ch, 640 Kbps - Русский (DUB, Лицензия)
    Аудио 2: TrueHD, 8 ch, 4929 Kbps - Английский
    Аудио 3: AC3, 6 ch, 640 Kbps - Английский
    General
    Unique ID : 243096876564857893452776848550073267578 (0xB6E2C161A756E910EC1C77432914F57A)
    Complete name : F: Video111The.Lion.King.2019.Lic.BDREMUX.2160p.HDR.seleZen.mkv
    Format : Matroska
    Format version : Version 4
    File size : 50.0 GiB
    Duration : 1 h 58 min
    Overall bit rate mode : Variable
    Overall bit rate : 60.6 Mb/s
    Movie name : The Lion King 2019 from селезень
    Encoded date : UTC 2019-11-26 21: 26: 45
    Writing application : mkvmerge v40.0.0 (\'Old Town Road + Pony\') 64-bit
    Writing library : libebml v1.3.9 + libmatroska v1.5.2
    Video
    ID : 1
    Format : HEVC
    Format/Info : High Efficiency Video Coding
    Format profile : Main10@L5.1@High
    HDR format : SMPTE ST 2086, HDR10 compatible
    Codec ID : V_MPEGH/ISO/HEVC
    Duration : 1 h 58 min
    Bit rate : 54.3 Mb/s
    Width : 3 840 pixels
    Height : 2 160 pixels
    Display aspect ratio : 16: 9
    Frame rate mode : Constant
    Frame rate : 23.976 (24000/1001) FPS
    Color space : YUV
    Chroma subsampling : 4: 2: 0 (Type 2)
    Bit depth : 10 bits
    Bits/(Pixel*Frame) : 0.273
    Stream size : 44.8 GiB (90%)
    Writing library : ATEME Titan File 3.9.0 (4.9.0.0)
    Language : English
    Default : Yes
    Forced : No
    Color range : Limited
    Color primaries : BT.2020
    Transfer characteristics : PQ
    Matrix coefficients : BT.2020 non-constant
    Mastering display color pri : Display P3
    Mastering display luminance : min: 0.0001 cd/m2, max: 1000 cd/m2
    Audio #1
    ID : 2
    Format : AC-3
    Format/Info : Audio Coding 3
    Commercial name : Dolby Digital
    Codec ID : A_AC3
    Duration : 1 h 58 min
    Bit rate mode : Constant
    Bit rate : 640 kb/s
    Channel(s) : 6 channels
    Channel layout : L R C LFE Ls Rs
    Sampling rate : 48.0 kHz
    Frame rate : 31.250 FPS (1536 SPF)
    Bit depth : 16 bits
    Compression mode : Lossy
    Stream size : 541 MiB (1%)
    Title : Dub License
    Language : Russian
    Service kind : Complete Main
    Default : Yes
    Forced : Yes
    Audio #2
    ID : 3
    Format : MLP FBA 16-ch
    Format/Info : Meridian Lossless Packing FBA with 16-channel presentation
    Commercial name : Dolby TrueHD with Dolby Atmos
    Codec ID : A_TRUEHD
    Duration : 1 h 58 min
    Bit rate mode : Variable
    Bit rate : 4 929 kb/s
    Maximum bit rate : 7 332 kb/s
    Channel(s) : 8 channels
    Channel layout : L R C LFE Ls Rs Lb Rb
    Sampling rate : 48.0 kHz
    Frame rate : 1 200.000 FPS (40 SPF)
    Compression mode : Lossless
    Stream size : 4.07 GiB (8%)
    Title : Original
    Language : English
    Default : No
    Forced : No
    Number of dynamic objects : 13
    Bed channel count : 1 channel
    Bed channel configuration : LFE
    Audio #3
    ID : 4
    Format : AC-3
    Format/Info : Audio Coding 3
    Commercial name : Dolby Digital
    Codec ID : A_AC3
    Duration : 1 h 58 min
    Bit rate mode : Constant
    Bit rate : 640 kb/s
    Channel(s) : 6 channels
    Channel layout : L R C LFE Ls Rs
    Sampling rate : 48.0 kHz
    Frame rate : 31.250 FPS (1536 SPF)
    Bit depth : 16 bits
    Compression mode : Lossy
    Stream size : 541 MiB (1%)
    Language : English
    Service kind : Complete Main
    Default : No
    Forced : No
    Text #1
    ID : 5
    Format : UTF-8
    Codec ID : S_TEXT/UTF8
    Codec ID/Info : UTF-8 Plain Text
    Duration : 1 h 55 min
    Bit rate : 68 b/s
    Count of elements : 1371
    Stream size : 58.1 KiB (0%)
    Title : Full
    Language : Russian
    Default : No
    Forced : No
    Text #2
    ID : 6
    Format : UTF-8
    Codec ID : S_TEXT/UTF8
    Codec ID/Info : UTF-8 Plain Text
    Duration : 1 h 47 min
    Bit rate : 89 b/s
    Count of elements : 1642
    Stream size : 70.4 KiB (0%)
    Title : SDH
    Language : Russian
    Default : No
    Forced : No
    Text #3
    ID : 7
    Format : UTF-8
    Codec ID : S_TEXT/UTF8
    Codec ID/Info : UTF-8 Plain Text
    Duration : 1 h 46 min
    Bit rate : 50 b/s
    Count of elements : 1369
    Stream size : 39.1 KiB (0%)
    Title : Full
    Language : English
    Default : No
    Forced : No
    Menu
    00: 00: 00.000 : en: Глава 01
    00: 04: 50.499 : en: Глава 02
    00: 10: 51.067 : en: Глава 03
    00: 17: 47.692 : en: Глава 04
    00: 23: 53.015 : en: Глава 05
    00: 30: 00.132 : en: Глава 06
    00: 33: 05.066 : en: Глава 07
    00: 37: 09.310 : en: Глава 08
    00: 43: 42.912 : en: Глава 09
    00: 50: 47.336 : en: Глава 10
    00: 55: 02.716 : en: Глава 11
    00: 59: 48.460 : en: Глава 12
    01: 06: 27.233 : en: Глава 13
    01: 14: 32.093 : en: Глава 14
    01: 18: 26.410 : en: Глава 15
    01: 23: 07.900 : en: Глава 16
    01: 28: 04.654 : en: Глава 17
    01: 33: 10.877 : en: Глава 18
    01: 37: 13.745 : en: Глава 19
    01: 44: 39.190 : en: Глава 20
    01: 47: 47.336 : en: Глава 21
    Диск на Blu-ray.com
    Просмотр 4K HDR-контента на ПК

    Скриншоты для ознакомления



    Все одноименные релизы в Клубе
    Время раздачи: Мультитрекер (до появления первых 3-5 скачавших)

    Онлайн видео Король Лев


    Король Лев / The Lion King (2019) UHD BDRemux [H.265 / 2160p] [4K, HDR, 10-bit] торрент скачать бесплатно
    Рейтинг →
     (голосов: 1, оценка 4/5, голосовать можно 1 раз )

    Другие торренты по теме:

  • Король Лев / The Lion King (1994) BDRip [1080p] 3D [Вертикальная анаморфная стереопара]
  • Король Лев / The Lion King (1994) BDRip [H.265 / 1080p]
  • Лев Лео, король джунглей / Leo the Lion: King of the Jungle (1994) DVDRip
  • Король Лев / The Lion King (1994) BDRip [H.264 / 1080p-LQ]
  • Король Лев / The Lion King (1994-2004) Blu-Ray [1080p] [Трилогия]
  • Король Лев / The Lion King (1994) UHD BDRemux [H.265 / 2160p] [4K, HDR, 10-bit]
  • Король Лев / The Lion King (1994) BDRip [H.264] [MP4|1280x720] [VO]
  • Король Лев / The Lion King (1994-2004) BDRemux [H.264 / 1080p] (Трилогия)


    • Комментарии (0):

      Информация

      Информация

        Посетители, находящиеся в группе Гости, не могут оставлять комментарии в данной новости.

        ↓ Меню




        Популярное