ВАЖНО! Сайт скоро заблокируют! Подписывайся на наш канал в Telegram https://t.me/torrentok и получи доступ к торрентам без ограничений!
.
Авторизация | Регистрация
bitok.xyz
Торрент скачать бесплатно Мультфильмы торрент скачать Робин Гуд / Robin Hood (1973) HDRip [H.265] [10-bit] торрент скачать бесплатно


    Робин Гуд / Robin Hood (1973) HDRip [H.265] [10-bit] торрент скачать бесплатно

    Дата: 11-02-2020, 05:00 | .torrent скачали: 0

    Робин Гуд / Robin Hood (1973) HDRip [H.265] [10-bit]Производство: США/Walt Disney Productions, Walt Disney Animation Studios
    Жанр: мультфильм, мелодрама, комедия, приключения, семейный
    Режиссер: Вольфганг Райтерман

    Описание
    Добро пожаловать в дремучий Шервудский лес, где ты встретишь храброго и забавного лисенка по имени Робин Гуд и его лучшего друга Крошку Джона — большого добродушного медведя. Эту веселую компанию давно разыскивает шериф Нотингема. Он готовит друзьям ловушку: на турнире лучников Робин Гуда будет ждать засада. Но отважный лисенок все равно собирается участвовать в состязании: ведь только там у него есть шанс увидеть красавицу Мариан.


    Возраст: 6+ (зрителям, достигшим 6 лет)
    Рейтинг MPAA: G (нет возрастных ограничений)
    Продолжительность: 01: 23: 02
    Качество видео: HDRip
    Перевод: Дублированный
    Субтитры: Русские, английские
    Видео: HEVC/H.265, 960x576, 1960 Kbps
    Аудио 1 : AC3, 2 ch, 160 Kbps | Русский
    Аудио 2 : AC3, 2 ch, 160 Kbps | АнглийскийОбщее
    Уникальный идентификатор : 229774146216822060638347998581192453179 (0xACDCE40FB21FD1928200D4843508EC3B)
    Полное имя : Robin.Hood.1973.HDRip.HEVC.mkv
    Формат : Matroska
    Версия формата : Version 4/Version 2
    Размер файла : 1, 35 Гбайт
    Продолжительность : 1 ч. 23 м.
    Общий поток : 2326 Кбит/сек
    Название фильма : Robin Hood (1973)
    Программа кодирования : XviD4PSP 8.0.91
    Библиотека кодирования : Lavf58.20.100
    Обложка : Yes
    ErrorDetectionType : Per level 1
    Attachments : cover
    ENCODING_INFO : JPEG COPY Быстрое
    Язык : und
    Видео
    Идентификатор : 1
    Формат : HEVC
    Формат/Информация : High Efficiency Video Coding
    Профиль формата : Main10@L4.1@High
    Идентификатор кодека : V_MPEGH/ISO/HEVC
    Продолжительность : 1 ч. 23 м.
    Битрейт : 1960 Кбит/сек
    Ширина : 960 пикселей
    Высота : 576 пикселей
    Соотношение сторон : 5: 3
    Режим частоты кадров : Постоянный
    Частота кадров : 23, 976 (24000/1001) кадра/сек
    Цветовое пространство : YUV
    Субдискретизация насыщенности : 4: 2: 0
    Битовая глубина : 10 бит
    Бит/(Пиксели*Кадры) : 0.148
    Размер потока : 1, 14 Гбайт (84%)
    Default : Да
    Forced : Нет
    Цветовой диапазон : Limited
    Основные цвета : BT.709
    Характеристики трансфера : BT.709
    Коэффициенты матрицы : BT.709
    ENCODING_INFO : HEVC HEVC NVENC VBR 2000kbps HQ
    Аудио #1
    Идентификатор : 2
    Формат : AC-3
    Формат/Информация : Audio Coding 3
    Параметр Endianness формата : Big
    Идентификатор кодека : A_AC3
    Продолжительность : 1 ч. 23 м.
    Вид битрейта : Постоянный
    Битрейт : 160 Кбит/сек
    Каналы : 2 канала
    Расположение каналов : Front: L R
    Частота : 48, 0 КГц
    Частота кадров : 31, 250 кадров/сек (1536 SPF)
    Битовая глубина : 16 бит
    Метод сжатия : С потерями
    Размер потока : 95, 0 Мбайт (7%)
    Заголовок : DUB Пифагор
    Язык : Russian
    ServiceKind/String : Complete Main
    Default : Да
    Forced : Нет
    ENCODING_INFO : AC3 AC3 CBR 160kbps
    Аудио #2
    Идентификатор : 3
    Формат : AC-3
    Формат/Информация : Audio Coding 3
    Параметр Endianness формата : Big
    Идентификатор кодека : A_AC3
    Продолжительность : 1 ч. 23 м.
    Вид битрейта : Постоянный
    Битрейт : 160 Кбит/сек
    Каналы : 6 каналов
    Расположение каналов : Front: L C R, Side: L R, LFE
    Частота : 48, 0 КГц
    Частота кадров : 31, 250 кадров/сек (1536 SPF)
    Битовая глубина : 16 бит
    Метод сжатия : С потерями
    Размер потока : 95, 0 Мбайт (7%)
    Заголовок : ORIGINAL
    Язык : English
    ServiceKind/String : Complete Main
    Default : Нет
    Forced : Нет
    ENCODING_INFO : AC3 AC3 CBR 160kbps
    Текст #1
    Идентификатор : 4
    Формат : UTF-8
    Идентификатор кодека : S_TEXT/UTF8
    Идентификатор кодека/Информация : UTF-8 Plain Text
    Заголовок : forced
    Язык : Russian
    Default : Да
    Forced : Да
    ENCODING_INFO : SUBRIP COPY Быстрое
    Текст #2
    Идентификатор : 5
    Формат : UTF-8
    Идентификатор кодека : S_TEXT/UTF8
    Идентификатор кодека/Информация : UTF-8 Plain Text
    Заголовок : full
    Язык : Russian
    Default : Нет
    Forced : Нет
    ENCODING_INFO : SUBRIP COPY Быстрое
    Текст #3
    Идентификатор : 6
    Формат : UTF-8
    Идентификатор кодека : S_TEXT/UTF8
    Идентификатор кодека/Информация : UTF-8 Plain Text
    Заголовок : full
    Язык : English
    Default : Нет
    Forced : Нет
    ENCODING_INFO : SUBRIP COPY Быстрое
    Текст #4
    Идентификатор : 7
    Формат : UTF-8
    Идентификатор кодека : S_TEXT/UTF8
    Идентификатор кодека/Информация : UTF-8 Plain Text
    Заголовок : SDH
    Язык : English
    Default : Нет
    Forced : Нет
    ENCODING_INFO : SUBRIP COPY Быстрое
    Меню
    00: 00: 00.000 : : 00: 00: 00.000
    00: 03: 31.962 : : 00: 03: 31.962
    00: 09: 10.133 : : 00: 09: 10.133
    00: 15: 09.617 : : 00: 15: 09.617
    00: 20: 57.089 : : 00: 20: 57.089
    00: 27: 01.537 : : 00: 27: 01.537
    00: 31: 22.172 : : 00: 31: 22.172
    00: 37: 40.049 : : 00: 37: 40.049
    00: 42: 00.351 : : 00: 42: 00.351
    00: 48: 57.643 : : 00: 48: 57.643
    00: 51: 08.983 : : 00: 51: 08.983
    00: 55: 10.432 : : 00: 55: 10.432
    01: 03: 05.198 : : 01: 03: 05.198
    01: 05: 22.001 : : 01: 05: 22.001
    01: 20: 30.743 : : 01: 20: 30.743

    Скриншоты для ознакомления



    Все одноименные релизы в Клубе
    Время раздачи: 19 - 23 (до появления первых 3-5 скачавших)

    Онлайн видео Робин Гуд


    Робин Гуд / Robin Hood (1973) HDRip [H.265] [10-bit] торрент скачать бесплатно
    Рейтинг →
     (голосов: 1, оценка 3/5, голосовать можно 1 раз )

    Другие торренты по теме:

  • Робин Гуд / Robin Hood (1973) BDRemux [1080p] скачать через торрент бесплатно
  • Бэтмен и Робин / Batman & Robin (1997) BDRip [1080p] скачать через торрент бесплатно
  • Робин Гуд / Robin Hood (1973) BDRip [480p] iPod / iPhone
  • Робин Гуд / Robin Hood (1973) BDRip [720p] ATV скачать через торрент бесплатно
  • Робин Гуд: Принц Воров / Robin Hood: Prince of Thieves (1991) BDRip [H.264 / 1080p] [Extended Cut] скачать через торрент бесплатно
  • Робин и 7 гангстеров / Robin and the 7 Hoods (1964) DVDRip [H.264]
  • Приключения Робин Гуда / The Adventures Of Robin Hood (1938) BDRip [H.264 / 720p]
  • Робин Гуд, правдивая история / Robin des Bois, la veritable histoire (2015) HDRip


    • Комментарии (0):

      Информация

      Информация

        Посетители, находящиеся в группе Гости, не могут оставлять комментарии в данной новости.

        ↓ Меню




        Популярное

        Роботы-пожарные / Fire Robo (2016) WEB-DLRip [H.264 / 720p-LQ] (сезон 1, серии 1-26 из 26) [Обновляемая]

        (скачиваний: 5)
        Сергей Матвеев | Полный курс английского языка для лентяев (2016) [PDF]

        (скачиваний: 4)
        Жила-была царевна (2015-2019) WEB-DLRip [H.264 / 720p-LQ] (сезон 1, серии 1-18 из 26) [Обновляемая]

        (скачиваний: 3)
        Gekijouban KanColle | Kantai Collection Movie | Fleet Girls Collection: Movie Sequence| Коллекционная флотилия на большом экране [2016, Movie] BDrip 720p 10bit raw

        (скачиваний: 3)
        Роберт Кийосаки | Богатый папа, бедный папа для подростков (2014) [PDF, FB2]

        (скачиваний: 3)
        Серия книг | Образовательная манга (2010 - 2015) [PDF]

        (скачиваний: 3)
        Анна Зайцева, Анастасия Дубасова | Чудесный пластилин: лепим вместе с детьми (2011) [PDF]

        (скачиваний: 2)
        Королевская академия / Regal Academy (2016) SATRip [H.264] (Сезон 1, 26 серий из 26) [UKR]

        (скачиваний: 2)
        Свинка Пеппа / Peppa Pig (2004-2012) SATRip (1-4 сезоны: 208 серий из 209) скачать через торрент бесплатно

        (скачиваний: 2)
        Металионы / Metalions (2018-2019) WEB-DLRip [H.264 / 720p-LQ] (сезон 1, серии 1-52 из 52) [Обновляемая]

        (скачиваний: 2)