Подписывайся на наш канал в Telegram https://t.me/torrentok и получи доступ к торрентам без ограничений!
.
Авторизация | Регистрация
bitok.xyz
Торрент скачать бесплатно Мультфильмы торрент скачать Ваня Датский (1974) WEBRip торрент скачать бесплатно


    Ваня Датский (1974) WEBRip торрент скачать бесплатно

    Дата: 11-02-2020, 05:00 | .torrent скачали: 1

    Ваня Датский (1974) WEBRipПроизводство: СССР/Союзмультфильм
    Жанр: Короткометражный, кукольный
    Режиссер: Николай Серебряков

    Описание

    История о поморском мальчике, который уплыл за море и до зрелых лет прожил в чужих краях в довольстве и счастье, но все же вернулся на родную землю, к матери, что ждала его долгие годы.

    Возраст: 0+ (для любой зрительской аудитории)
    Продолжительность: 00: 15: 04
    Качество видео: WEBRip
    Субтитры: Отсутствуют
    Видео: Xvid, 720x524 (4: 3), ~2095 Kbps
    Аудио: AC3, 2 ch, 192 Kbps
    Общее
    Полное имя : D: Ваня Датский (1974).WEBRip.avi
    Формат : AVI
    Формат/Информация : Audio Video Interleave
    Размер файла : 248 Мбайт
    Продолжительность : 15 м. 4 с.
    Общий поток : 2299 Кбит/сек
    Программа кодирования : Lavf58.20.100
    Видео
    Идентификатор : 0
    Формат : MPEG-4 Visual
    Профиль формата : Advanced Simple@L5
    Настройки формата : BVOP2
    Параметр BVOP формата : 2
    Параметр QPel формата : Нет
    Параметр GMC формата : Без точки перехода
    Параметр матрицы формата : Default (MPEG)
    Идентификатор кодека : XVID
    Идентификатор кодека/Подсказка : XviD
    Продолжительность : 15 м. 4 с.
    Битрейт : 2096 Кбит/сек
    Ширина : 720 пикселей
    Высота : 524 пикселя
    Соотношение сторон : 4: 3
    Частота кадров : 24, 000 кадра/сек
    Цветовое пространство : YUV
    Субдискретизация насыщенности : 4: 2: 0
    Битовая глубина : 8 бит
    Тип развёртки : Прогрессивная
    Метод сжатия : С потерями
    Бит/(Пиксели*Кадры) : 0.232
    Размер потока : 226 Мбайт (91%)
    Библиотека кодирования : XviD 67
    Аудио
    Идентификатор : 1
    Формат : AC-3
    Формат/Информация : Audio Coding 3
    Коммерческое название : Dolby Digital
    Идентификатор кодека : 2000
    Продолжительность : 15 м. 4 с.
    Вид битрейта : Постоянный
    Битрейт : 192 Кбит/сек
    Каналы : 2 канала
    ChannelLayout : L R
    Частота : 48, 0 КГц
    Частота кадров : 31, 250 кадров/сек (1536 SPF)
    Битовая глубина : 16 бит
    Метод сжатия : С потерями
    Размер потока : 20, 7 Мбайт (8%)
    Выравнивание : Соединение по промежуткам
    Продолжительность промежутка : 32 мс. (0, 77 видеокадр)
    ServiceKind/String : Complete Main

    Скриншоты для ознакомления



    Все одноименные релизы в Клубе
    Время раздачи: 24/7 (круглосуточно) (до появления первых 3-5 скачавших)

    Онлайн видео Ваня Датский (1974) WEBRip [H.264


    Ваня Датский (1974) WEBRip торрент скачать бесплатно
    Рейтинг →
     (голосов: 1, оценка 4/5, голосовать можно 1 раз )

    Другие торренты по теме:

  • Ваня Датский (1974) WEBRip [H.264 / 1080p-LQ] [PR]


    • Комментарии (0):

      Информация

      Информация

        Посетители, находящиеся в группе Гости, не могут оставлять комментарии в данной новости.

        ↓ Меню




        Популярное