Подписывайся на наш канал в Telegram https://t.me/torrentok и получи доступ к торрентам без ограничений!
.
Авторизация | Регистрация
bitok.xyz
Торрент скачать бесплатно Мультфильмы торрент скачать Дора и Затерянный город / Dora and the Lost City of Gold (2019) BDRip [H.265 / 1080p] [10-bit] [PR] торрент скачать бесплатно


    Дора и Затерянный город / Dora and the Lost City of Gold (2019) BDRip [H.265 / 1080p] [10-bit] [PR] торрент скачать бесплатно

    Дата: 11-02-2020, 05:00 | .torrent скачали: 0

    Дора и Затерянный город / Dora and the Lost City of Gold (2019) BDRip [H.265 / 1080p] [10-bit] [PR]Производство: США, Мексика, Австралия/Paramount Players, Walden Media, Screen Queensland
    Жанр: Приключения, семейный
    Режиссер: Джеймс Бобин

    Актеры
    Изабела Монер, Эухенио Дербес, Майкл Пенья, Ева Лонгория, Джеффри Уолберг, Николас Кумбе, Мадлен Мэдден, Темуэра Моррисон, Бенисио Дель Торо, Дэнни Трехо, Мэдлин Миранда


    Описание

    Практически все детство Дора провела в джунглях, где работали ее родители-исследователи. Но никакие прежние приключения не могли подготовить девушку к опасностям старшей школы — непониманию, соперничеству, зависти. Вдобавок таинственным образом исчезают родители Доры. Но она не была бы собой, если бы опустила руки. Первая любовь, а также старые и новые друзья вдохновляют смелую девушку отправиться на поиски родных. На пути к цели их ждет масса испытаний, а также леденящая кровь загадка потерянной цивилизации…

    Возраст: 6+ (зрителям, достигшим 6 лет)
    Рейтинг MPAA: PG (рекомендуется присутствие родителей)
    Дата мировой премьеры: 2 августа 2019
    Дата российской премьеры: 8 августа 2019, Централ Партнершип
    Продолжительность: 01: 42: 27
    Качество видео: BDRip (1080p)
    Перевод: Дублированный (Лицензия)
    Субтитры: Русские, английские
    Видео: HEVC/H.265, 1920x1080, 11.0 Mbps
    Аудио 1: AC3, 6 ch, 640 Kbps | Русский
    Аудио 2: AC3, 6 ch, 640 Kbps | АнглийскийОбщее
    Уникальный идентификатор : 338700984601514475704050934346703575436 (0xFECF6FD4FDF2568FB994C3AD0A02198C)
    Полное имя : Dora.and.the.Lost.City.of.Gold.2019.BDRip.HEVC3.mkv
    Формат : Matroska
    Версия формата : Version 4/Version 2
    Размер файла : 8, 97 Гбайт
    Продолжительность : 1 ч. 42 м.
    Общий поток : 12, 5 Мбит/сек
    Название фильма : Dora and the Lost City of Gold 2019
    Программа кодирования : XviD4PSP 8.0.91
    Библиотека кодирования : Lavf58.20.100
    ErrorDetectionType : Per level 1
    ENCODING_INFO : MATROSKA, WEBM MKV 1920x1080 HEVC 10-bit
    Видео
    Идентификатор : 1
    Формат : HEVC
    Формат/Информация : High Efficiency Video Coding
    Профиль формата : Main10@L4.1@High
    Идентификатор кодека : V_MPEGH/ISO/HEVC
    Продолжительность : 1 ч. 42 м.
    Битрейт : 11, 0 Мбит/сек
    Ширина : 1920 пикселей
    Высота : 1080 пикселей
    Соотношение сторон : 16: 9
    Режим частоты кадров : Постоянный
    Частота кадров : 23, 976 (24000/1001) кадра/сек
    Цветовое пространство : YUV
    Субдискретизация насыщенности : 4: 2: 0
    Битовая глубина : 10 бит
    Бит/(Пиксели*Кадры) : 0.221
    Размер потока : 7, 87 Гбайт (88%)
    Язык : English
    Default : Да
    Forced : Нет
    Цветовой диапазон : Full
    ENCODING_INFO : H264 HEVC NVENC VBR 11250kbps HQ
    Аудио #1
    Идентификатор : 2
    Формат : AC-3
    Формат/Информация : Audio Coding 3
    Параметр Endianness формата : Big
    Идентификатор кодека : A_AC3
    Продолжительность : 1 ч. 42 м.
    Вид битрейта : Постоянный
    Битрейт : 640 Кбит/сек
    Каналы : 6 каналов
    Расположение каналов : Front: L C R, Side: L R, LFE
    Частота : 48, 0 КГц
    Частота кадров : 31, 250 кадров/сек (1536 SPF)
    Битовая глубина : 16 бит
    Метод сжатия : С потерями
    Размер потока : 469 Мбайт (5%)
    Заголовок : Dub License
    Язык : Russian
    ServiceKind/String : Complete Main
    Default : Да
    Forced : Нет
    ENCODING_INFO : AC3 COPY Безопасное
    Аудио #2
    Идентификатор : 3
    Формат : AC-3
    Формат/Информация : Audio Coding 3
    Параметр Endianness формата : Big
    Идентификатор кодека : A_AC3
    Продолжительность : 1 ч. 42 м.
    Вид битрейта : Постоянный
    Битрейт : 640 Кбит/сек
    Каналы : 6 каналов
    Расположение каналов : Front: L C R, Side: L R, LFE
    Частота : 48, 0 КГц
    Частота кадров : 31, 250 кадров/сек (1536 SPF)
    Битовая глубина : 16 бит
    Метод сжатия : С потерями
    Размер потока : 469 Мбайт (5%)
    Язык : English
    ServiceKind/String : Complete Main
    Default : Нет
    Forced : Нет
    ENCODING_INFO : AC3 COPY Безопасное
    Текст #1
    Идентификатор : 4
    Формат : UTF-8
    Идентификатор кодека : S_TEXT/UTF8
    Идентификатор кодека/Информация : UTF-8 Plain Text
    Заголовок : Forced
    Язык : Russian
    Default : Да
    Forced : Да
    ENCODING_INFO : SUBRIP COPY Быстрое
    Текст #2
    Идентификатор : 5
    Формат : UTF-8
    Идентификатор кодека : S_TEXT/UTF8
    Идентификатор кодека/Информация : UTF-8 Plain Text
    Заголовок : Full
    Язык : Russian
    Default : Нет
    Forced : Нет
    ENCODING_INFO : SUBRIP COPY Быстрое
    Текст #3
    Идентификатор : 6
    Формат : UTF-8
    Идентификатор кодека : S_TEXT/UTF8
    Идентификатор кодека/Информация : UTF-8 Plain Text
    Заголовок : Forced
    Язык : English
    Default : Нет
    Forced : Нет
    ENCODING_INFO : SUBRIP COPY Быстрое
    Текст #4
    Идентификатор : 7
    Формат : UTF-8
    Идентификатор кодека : S_TEXT/UTF8
    Идентификатор кодека/Информация : UTF-8 Plain Text
    Заголовок : Full
    Язык : English
    Default : Нет
    Forced : Нет
    ENCODING_INFO : SUBRIP COPY Быстрое
    Меню
    00: 00: 00.000 : : Chapter 01
    00: 04: 52.417 : : Chapter 02
    00: 09: 49.088 : : Chapter 03
    00: 15: 35.643 : : Chapter 04
    00: 20: 26.767 : : Chapter 05
    00: 25: 47.838 : : Chapter 06
    00: 35: 15.780 : : Chapter 07
    00: 42: 53.738 : : Chapter 08
    00: 47: 13.664 : : Chapter 09
    00: 52: 57.883 : : Chapter 10
    00: 55: 41.463 : : Chapter 11
    01: 01: 02.659 : : Chapter 12
    01: 06: 11.301 : : Chapter 13
    01: 10: 23.136 : : Chapter 14
    01: 13: 52.136 : : Chapter 15
    01: 18: 26.327 : : Chapter 16
    01: 22: 39.496 : : Chapter 17
    01: 32: 57.322 : : Chapter 18
    01: 38: 30.238 : : Chapter 19

    Скриншоты для ознакомления



    Все одноименные релизы в Клубе
    Время раздачи: 19 - 23 (до появления первых 3-5 скачавших)

    Онлайн видео Дора и Затерянный город


    Дора и Затерянный город / Dora and the Lost City of Gold (2019) BDRip [H.265 / 1080p] [10-bit] [PR] торрент скачать бесплатно
    Рейтинг →
     (голосов: 1, оценка 3/5, голосовать можно 1 раз )

    Другие торренты по теме:

  • Дора и Затерянный город / Dora and the Lost City of Gold (2019) WEB-DLRip [H.264 / 1080p-LQ] [Line, AD]
  • Дора и Затерянный город / Dora and the Lost City of Gold (2019) BDRip [H.264 / 1080p]
  • Дора и Затерянный город / Dora and the Lost City of Gold (2019) BDRip [H.264 / 720p]
  • Дора и Затерянный город / Dora and the Lost City of Gold (2019) BDRemux [H.264 / 1080p]
  • Дора и Затерянный город / Dora and the Lost City of Gold (2019) BDRip [H.264]
  • Дора и Затерянный город / Dora and the Lost City of Gold (2019) BDRemux [H.264 / 1080p]
  • Дора и Затерянный город / Dora and the Lost City of Gold (2019) BDRip [H.264]
  • Дора и Затерянный город / Dora and the Lost City of Gold (2019) Blu-Ray [H.264 / 1080p] [EUR]


    • Комментарии (0):

      Информация

      Информация

        Посетители, находящиеся в группе Гости, не могут оставлять комментарии в данной новости.