Подписывайся на наш канал в Telegram https://t.me/torrentok и получи доступ к торрентам без ограничений!
.
Авторизация | Регистрация
bitok.xyz
Торрент скачать бесплатно Мультфильмы торрент скачать Heisei Tanuki Gassen Ponpoko | Pom Poko | Помпоко: Война тануки в период Хэйсэй [1994, Movie] BDRip 1080p raw+rus торрент скачать бесплатно


    Heisei Tanuki Gassen Ponpoko | Pom Poko | Помпоко: Война тануки в период Хэйсэй [1994, Movie] BDRip 1080p raw+rus торрент скачать бесплатно

    Дата: 11-02-2020, 05:00 | .torrent скачали: 0

    Heisei Tanuki Gassen Ponpoko | Pom Poko | Помпоко: Война тануки в период Хэйсэй [1994, Movie] BDRip 1080p raw+rusТип: Movie
    Жанр: комедия, драма, фэнтези
    Продолжительность: 120 мин.
    Дата выпуска: 16.07.1994
    Производство: Япония. Studio Ghibli
    Автор оригинала: Такахата Исао
    Режиссер: Такахата Исао
    Ссылки: World-Art

    Описание

    Современная Япония. Владения людей всё больше расширяются, и они, вырубая леса, постепенно лишают мест обитания народ тануки — енотовидных собак-оборотней. Чтобы сохранить свой дом на холмах в предместьях Южного Токио, молодёжь тануки активно практикуется в искусстве превращения. За помощью от известных тануки-мастеров магии отправляются подготовленные гонцы. Тануки изучают людей, демонстрируют сверхъестественные способности, уничтожают технику, расчищающую лес для новостроек. Однако помощь от мастеров задерживается, а к тануки обращается представитель лис-оборотней, которые смогли приспособиться к жизни среди людей.
    Язык озвучки: Русский и английский
    Субтитры: Русские, английские
    Качество видео: BDRip
    Видео: AVC/H264, 1920x1036, 8400 kbps, 23.976 fps, 8 bit
    Аудио 1: rus, AC3, 48.0 khz, 2.0 ch, 192 kbps | Киномания
    Аудио 2: rus, AC3, 48.0 khz, 2.0 ch, 192 kbps | Артём Толстобров (пер. RAnKO)
    Аудио 3: jpn, AAC LC, 48.0 khz, 2.0 ch, 319 kbps | Original
    Аудио 4: eng, AAC LC, 48.0 khz, 2.0 ch, 288 kbps | Dubbing

    Скриншоты для ознакомления



    General
    Unique ID : 19111686479181553588076466146184169224 (0xE60C6E4BD82D07579FB55D6D6F68708)
    Complete name : D: userDownloadsHeisei Tanuki Gassen Ponpoko (Pom Poko) BDRip 1080pВойна тануки в периоды Хэйсэй и Помпоко.mkv
    Format : Matroska
    Format version : Version 4
    File size : 7.82 GiB
    Duration : 1 h 59 min
    Overall bit rate : 9 392 kb/s
    Encoded date : UTC 2020-02-08 11: 33: 08
    Writing application : mkvmerge v40.0.0 (\'Old Town Road + Pony\') 64-bit
    Writing library : libebml v1.3.9 + libmatroska v1.5.2
    Video
    ID : 1
    Format : AVC
    Format/Info : Advanced Video Codec
    Format profile : High@L5
    Format settings : CABAC/6 Ref Frames
    Format settings, CABAC : Yes
    Format settings, Reference fra : 6 frames
    Codec ID : V_MPEG4/ISO/AVC
    Duration : 1 h 59 min
    Bit rate : 8 400 kb/s
    Width : 1 920 pixels
    Height : 1 036 pixels
    Display aspect ratio : 1.85: 1
    Frame rate mode : Constant
    Frame rate : 23.976 (24000/1001) FPS
    Color space : YUV
    Chroma subsampling : 4: 2: 0
    Bit depth : 8 bits
    Scan type : Progressive
    Bits/(Pixel*Frame) : 0.176
    Stream size : 6.99 GiB (89%)
    Title : Video
    Writing library : x264 core 157 r2969 d4099dd
    Encoding settings : cabac=1/ref=6/deblock=1: 1: 1/analyse=0x3: 0x113/me=hex/subme=7/psy=1/psy_rd=0.40: 0.00/mixed_ref=1/me_range=16/chroma_me=1/trellis=1/8x8dct=1/cqm=0/deadzone=21, 11/fast_pskip=1/chroma_qp_offset=-2/threads=6/lookahead_threads=1/sliced_threads=0/nr=0/decimate=1/interlaced=0/bluray_compat=0/constrained_intra=0/bframes=5/b_pyramid=2/b_adapt=1/b_bias=0/direct=1/weightb=1/open_gop=0/weightp=2/keyint=240/keyint_min=23/scenecut=40/intra_refresh=0/rc_lookahead=40/rc=2pass/mbtree=1/bitrate=8400/ratetol=1.0/qcomp=0.60/qpmin=0/qpmax=69/qpstep=4/cplxblur=20.0/qblur=0.5/ip_ratio=1.40/aq=1: 0.60
    Language : Japanese
    Default : Yes
    Forced : No
    Audio #1
    ID : 2
    Format : AC-3
    Format/Info : Audio Coding 3
    Commercial name : Dolby Digital
    Codec ID : A_AC3
    Duration : 1 h 59 min
    Bit rate mode : Constant
    Bit rate : 192 kb/s
    Channel(s) : 2 channels
    Channel layout : L R
    Sampling rate : 48.0 kHz
    Frame rate : 31.250 FPS (1536 SPF)
    Compression mode : Lossy
    Stream size : 164 MiB (2%)
    Title : Киномания
    Language : Russian
    Service kind : Complete Main
    Default : Yes
    Forced : No
    Audio #2
    ID : 3
    Format : AC-3
    Format/Info : Audio Coding 3
    Commercial name : Dolby Digital
    Codec ID : A_AC3
    Duration : 1 h 59 min
    Bit rate mode : Constant
    Bit rate : 192 kb/s
    Channel(s) : 2 channels
    Channel layout : L R
    Sampling rate : 48.0 kHz
    Frame rate : 31.250 FPS (1536 SPF)
    Compression mode : Lossy
    Stream size : 164 MiB (2%)
    Title : Артём Толстобров (пер. RAnKO)
    Language : Russian
    Service kind : Complete Main
    Default : No
    Forced : No
    Audio #3
    ID : 4
    Format : AAC LC
    Format/Info : Advanced Audio Codec Low Complexity
    Codec ID : A_AAC-2
    Duration : 1 h 59 min
    Bit rate : 319 kb/s
    Channel(s) : 2 channels
    Channel layout : L R
    Sampling rate : 48.0 kHz
    Frame rate : 46.875 FPS (1024 SPF)
    Compression mode : Lossy
    Delay relative to video : 9 ms
    Stream size : 272 MiB (3%)
    Title : Original
    Language : Japanese
    Default : No
    Forced : No
    Audio #4
    ID : 5
    Format : AAC LC
    Format/Info : Advanced Audio Codec Low Complexity
    Codec ID : A_AAC-2
    Duration : 1 h 59 min
    Bit rate : 288 kb/s
    Channel(s) : 2 channels
    Channel layout : L R
    Sampling rate : 48.0 kHz
    Frame rate : 46.875 FPS (1024 SPF)
    Compression mode : Lossy
    Delay relative to video : 9 ms
    Stream size : 245 MiB (3%)
    Title : Dubbing
    Language : English
    Default : No
    Forced : No
    Menu
    00: 00: 00.000 : en: Chapter 1
    00: 00: 29.029 : en: Chapter 2
    00: 05: 19.736 : en: Chapter 3
    00: 10: 06.272 : en: Chapter 4
    00: 14: 48.471 : en: Chapter 5
    00: 18: 43.164 : en: Chapter 6
    00: 24: 07.947 : en: Chapter 7
    00: 28: 56.610 : en: Chapter 8
    00: 33: 02.856 : en: Chapter 9
    00: 38: 47.325 : en: Chapter 10
    00: 43: 40.910 : en: Chapter 11
    00: 49: 48.402 : en: Chapter 12
    00: 55: 35.290 : en: Chapter 13
    01: 00: 56.403 : en: Chapter 14
    01: 05: 40.645 : en: Chapter 15
    01: 09: 12.148 : en: Chapter 16
    01: 16: 21.535 : en: Chapter 17
    01: 21: 44.066 : en: Chapter 18
    01: 27: 18.233 : en: Chapter 19
    01: 33: 44.202 : en: Chapter 20
    01: 38: 33.991 : en: Chapter 21
    01: 44: 40.483 : en: Chapter 22
    01: 50: 59.361 : en: Chapter 23
    01: 54: 44.378 : en: Chapter 24
    Время раздачи: 24/7 (до появления первых 3-5 скачавших)

    Онлайн видео Heisei Tanuki Gassen Ponpoko


    Heisei Tanuki Gassen Ponpoko | Pom Poko | Помпоко: Война тануки в период Хэйсэй [1994, Movie] BDRip 1080p raw+rus торрент скачать бесплатно
    Рейтинг →
     (голосов: 1, оценка 5/5, голосовать можно 1 раз )

    Другие торренты по теме:



      Комментарии (0):

      Информация

      Информация

        Посетители, находящиеся в группе Гости, не могут оставлять комментарии в данной новости.

        ↓ Меню




        Популярное

        Фиксики против Кработов (2019) WEB-DLRip

        (скачиваний: 134)
        Рик и Морти / Rick and Morty (2015) WEB-DL [H.264 / 1080p] (Сезон 2, серии 1-10 из 10) Сыендук [EN / RU Sub] скачать через торрент бесплатно

        (скачиваний: 109)
        М.Ю. Демидова | ЕГЭ-2020. Физика. 30 типовых вариантов (2020) [PDF]

        (скачиваний: 80)
        Малышарики (2015-2019) WEB-DL [H.264 / 1080p-LQ] (серии 1-154 из 208) [Обновляемая]

        (скачиваний: 68)
        Рик и Морти / Rick and Morty (2013) BDRip [H.264 / 720p-LQ] (сезон 1, серии 1-11 из 11) Сыендук

        (скачиваний: 65)
        Рик и Морти / Rick and Morty (2013) BDRip [H.264 / 1080p] (Сезон 1, серии 1-11 из 11) Сыендук [EN Sub] скачать через торрент бесплатно

        (скачиваний: 46)
        Фиксики против Кработов (2019) WEB-DL [H.264 / 1080p-LQ]

        (скачиваний: 32)
        Свинка Пеппа / Peppa Pig (2004-2012) SATRip (1-4 сезоны: 208 серий из 209) скачать через торрент бесплатно

        (скачиваний: 28)
        Рик и Морти / Rick and Morty (2017) WEBRip [H.264 / 720p-LQ] (Сезон 3, серии 1 из ) Сыендук

        (скачиваний: 26)
        Жила-была царевна (2015-2019) WEB-DLRip [H.264 / 720p-LQ] (сезон 1, серии 1-18 из 26) [Обновляемая]

        (скачиваний: 21)