Подписывайся на наш канал в Telegram https://t.me/torrentok и получи доступ к торрентам без ограничений!
.
Авторизация | Регистрация
bitok.xyz
Торрент скачать бесплатно Мультфильмы торрент скачать Shoujo Shuumatsu Ryokou | Girls Last Tour | Девушки в Последнем Путешествии [2017, TV, 12 ep + 12 sp] BDRip 1080p raw+rus торрент скачать бесплатно


    Shoujo Shuumatsu Ryokou | Girls Last Tour | Девушки в Последнем Путешествии [2017, TV, 12 ep + 12 sp] BDRip 1080p raw+rus торрент скачать бесплатно

    Дата: 11-02-2020, 05:00 | .torrent скачали: 0

    Shoujo Shuumatsu Ryokou | Girls Last Tour | Девушки в Последнем Путешествии [2017, TV, 12 ep + 12 sp] BDRip 1080p raw+rusТип: TV
    Жанр: Приключения, Фантастика, Повседневность
    Продолжительность: 12 Эпизодов по 23 Мин.; 12 Эпизодов по 1: 30
    Количество серий: 12 Эпизодов + 12 Specials
    Дата выпуска: c06.10.2017 по22.12.2017
    Автор оригинала: Цукумидзу
    Режиссер: Одзаки Такахару
    Производство: White Fox/ Япония

    World-Art |AniDB |MyAnimelist |Shikimori

    Описание

    Мир будущего. Человеческая цивилизация достигла невероятного технологического прогресса и однажды построила себе гигантские многоуровневые города, в которых проживало огромное количество людей. Однако через какое-то время началась война, после которой человечество оказалось на грани вымирания.
    Спустя много лет в одном из таких городов мы встречаем Тито и Юри. Эти две маленькие девочки изо дня в день путешествуют на своём модифицированном Kettenkrad в поисках пропитания и ресурсов.
    Движимые желанием забраться на самую вершину этого опустевшего города-исполина, они постоянно сталкиваются со всё новыми и новыми загадочными сооружениями, памятниками истории и культуры и даже с некоторыми другими выжившими. Что же будет ждать их в конце этой длинной дороги?
    Автор: nexrenay ©Shikimori
    Качество Видео: BDRip,
    Видео: AVC/x264 , 1920x1080, 23.976 fps, 10.6 Mb/s, 0.214 bpp8-bit
    Язык Озвучки: Японский и Русский
    Озвучка: Двухголосая, Многоголосая закадровая
    TV
    Аудио №1: AC32.0 , 48.0 kHz, 192 kb/s(Kansai Studio) |Язык:
    Аудио №2: AC32.0 , 48.0 kHz, 192 kb/s(AniDUB) |Язык:
    Аудио №3: FLAC2.0 , 48.0 kHz, 1 295 kb/s 24-Bit(Original) |Язык:
    Specials
    Аудио №1: AC32.0 , 48.0 kHz, 192 kb/s(Shiza Project) |Язык:
    Аудио №2: FLAC2.0 , 48.0 kHz, 490 kb/s 16-Bit(Original) |Язык:
    Субтитры: Надписи/Полные(Русский)

    Скриншоты для ознакомления





    TV
    S1E01. Starry Sky. War (Звёздное небо. Война)
    S1E02. Bath. Journal. Laundry (Ванна. Журнал)
    S1E03. Encounter. City. Streetlights (Уличные огни)
    S1E04. Photograph. Temple (Фотография. Храм)
    S1E05. House. Nap. The Sound of Rain (Дом. Сон. Шум дождя)
    S1E06. Accident. Technology. Takeoff (Авария. Технологии. Взлёт)
    S1E07. Labyrinth. Cooking (Лабиринт. Готовка)
    S1E08. Memories. Spiral. Moonlight (Память. Спираль. Лунный свет)
    S1E09. Technology. Aquarium. Life (Технологии. Аквариум. Жизнь)
    S1E10. Train. Wavelength. Capture (Поезд. Длина волны. Добыча)
    S1E11. Culture. Destruction. The Past (Культура. Разрушение. Прошлое)
    S1E12. Connection. Friends (Соединение. Друзья)
    Specials
    S1E01. Mini Character Anime - Girls` Weekend Class - 01st Period
    S1E02. Mini Character Anime - Girls` Weekend Class - 02nd Period
    S1E03. Mini Character Anime - Girls` Weekend Class - 03rd Period
    S1E04. Mini Character Anime - Girls` Weekend Class - 04th Period
    S1E05. Mini Character Anime - Girls` Weekend Class - 05th Period
    S1E06. Mini Character Anime - Girls` Weekend Class - 06th Period
    S1E07. Mini Character Anime - Girls` Weekend Class - 07th Period
    S1E08. Mini Character Anime - Girls` Weekend Class - 08th Period
    S1E09. Mini Character Anime - Girls` Weekend Class - 09th Period
    S1E10. Mini Character Anime - Girls` Weekend Class - 10th Period
    S1E11. Mini Character Anime - Girls` Weekend Class - 11th Period
    S1E12. Mini Character Anime - Girls` Weekend Class - 12th Period

    General
    Unique ID : 303626673184235855241312517129248203435 (0xE46C5EC41E26281656DF48C7439462AB)
    Complete name : J: АнимеДевушки в Последнем Путешествии (Shoujo Shuumatsu Ryokou) BDRip (2017)S1E01. Starry Sky. War (Звёздное небо. Война).mkv
    Format : Matroska
    Format version : Version 4
    File size : 2.04 GiB
    Duration : 24 min 24 s
    Overall bit rate mode : Variable
    Overall bit rate : 12.0 Mb/s
    Encoded date : UTC 2019-10-16 08: 21: 30
    Writing application : mkvmerge v38.0.0 (\'The Silent Type\') 64-bit
    Writing library : libebml v1.3.9 + libmatroska v1.5.2
    Video
    ID : 1
    Format : AVC
    Format/Info : Advanced Video Codec
    Format profile : High@L4
    Format settings : CABAC/4 Ref Frames
    Format settings, CABAC : Yes
    Format settings, Reference : 4 frames
    Codec ID : V_MPEG4/ISO/AVC
    Duration : 23 min 42 s
    Bit rate : 10.6 Mb/s
    Width : 1 920 pixels
    Height : 1 080 pixels
    Display aspect ratio : 16: 9
    Frame rate mode : Constant
    Frame rate : 23.976 (24000/1001) FPS
    Color space : YUV
    Chroma subsampling : 4: 2: 0
    Bit depth : 8 bits
    Scan type : Progressive
    Bits/(Pixel*Frame) : 0.214
    Stream size : 1.76 GiB (86%)
    Writing library : x264 core 152
    Encoding settings : opencl=1/cabac=1/ref=4/deblock=1: -2: -2/analyse=0x3: 0x113/me=umh/subme=9/psy=1/psy_rd=0.70: 0.00/mixed_ref=0/me_range=32/chroma_me=1/trellis=2/8x8dct=1/cqm=0/deadzone=21, 11/fast_pskip=1/chroma_qp_offset=-2/threads=8/lookahead_threads=1/sliced_threads=0/nr=0/decimate=1/interlaced=0/bluray_compat=0/constrained_intra=0/bframes=9/b_pyramid=2/b_adapt=2/b_bias=0/direct=3/weightb=1/open_gop=0/weightp=2/keyint=250/keyint_min=23/scenecut=40/intra_refresh=0/rc_lookahead=40/rc=crf/mbtree=1/crf=16.0/qcomp=0.70/qpmin=10/qpmax=20/qpstep=4/ip_ratio=1.40/aq=1: 1.00
    Language : Japanese
    Default : Yes
    Forced : No
    Audio #1
    ID : 2
    Format : AC-3
    Format/Info : Audio Coding 3
    Commercial name : Dolby Digital
    Codec ID : A_AC3
    Duration : 23 min 42 s
    Bit rate mode : Constant
    Bit rate : 192 kb/s
    Channel(s) : 2 channels
    Channel layout : L R
    Sampling rate : 48.0 kHz
    Frame rate : 31.250 FPS (1536 SPF)
    Compression mode : Lossy
    Stream size : 32.5 MiB (2%)
    Title : Kansai Studio
    Language : Russian
    Service kind : Complete Main
    Default : Yes
    Forced : No
    Audio #2
    ID : 3
    Format : AC-3
    Format/Info : Audio Coding 3
    Commercial name : Dolby Digital
    Codec ID : A_AC3
    Duration : 23 min 42 s
    Bit rate mode : Constant
    Bit rate : 192 kb/s
    Channel(s) : 2 channels
    Channel layout : L R
    Sampling rate : 48.0 kHz
    Frame rate : 31.250 FPS (1536 SPF)
    Compression mode : Lossy
    Stream size : 32.5 MiB (2%)
    Title : Jade Oriko (AniDUB)
    Language : Russian
    Service kind : Complete Main
    Default : No
    Forced : No
    Audio #3
    ID : 4
    Format : FLAC
    Format/Info : Free Lossless Audio Codec
    Codec ID : A_FLAC
    Duration : 23 min 42 s
    Bit rate mode : Variable
    Bit rate : 1 295 kb/s
    Channel(s) : 2 channels
    Channel layout : L R
    Sampling rate : 48.0 kHz
    Frame rate : 10.417 FPS (4608 SPF)
    Bit depth : 24 bits
    Compression mode : Lossless
    Stream size : 219 MiB (11%)
    Title : Original
    Writing library : Lavf57.83.100
    Language : Japanese
    Default : No
    Forced : No
    Text #1
    ID : 5
    Format : ASS
    Codec ID : S_TEXT/ASS
    Codec ID/Info : Advanced Sub Station Alpha
    Duration : 10 min 43 s
    Bit rate : 1 b/s
    Count of elements : 3
    Compression mode : Lossless
    Stream size : 136 Bytes (0%)
    Title : Forced
    Language : Russian
    Default : Yes
    Forced : No
    Text #2
    ID : 6
    Format : ASS
    Codec ID : S_TEXT/ASS
    Codec ID/Info : Advanced Sub Station Alpha
    Duration : 22 min 57 s
    Bit rate : 57 b/s
    Count of elements : 181
    Compression mode : Lossless
    Stream size : 9.60 KiB (0%)
    Title : Full
    Language : Russian
    Default : No
    Forced : No

    General
    Unique ID : 129119197275172322588370922647146286864 (0x612373ED80A0437EDBD8FEC3D13D4F10)
    Complete name : J: АнимеДевушки в Последнем Путешествии (Shoujo Shuumatsu Ryokou) BDRip (2017)Mini Character AnimeS1E01. Mini Character Anime - Girls` Weekend Class - 01st Period.mkv
    Format : Matroska
    Format version : Version 4
    File size : 32.1 MiB
    Duration : 1 min 32 s
    Overall bit rate mode : Variable
    Overall bit rate : 2 922 kb/s
    Encoded date : UTC 2019-10-16 08: 23: 22
    Writing application : mkvmerge v38.0.0 (\'The Silent Type\') 64-bit
    Writing library : libebml v1.3.9 + libmatroska v1.5.2
    Video
    ID : 1
    Format : AVC
    Format/Info : Advanced Video Codec
    Format profile : High@L4
    Format settings : CABAC/4 Ref Frames
    Format settings, CABAC : Yes
    Format settings, Reference : 4 frames
    Codec ID : V_MPEG4/ISO/AVC
    Duration : 1 min 32 s
    Bit rate : 2 237 kb/s
    Width : 1 920 pixels
    Height : 1 080 pixels
    Display aspect ratio : 16: 9
    Frame rate mode : Constant
    Frame rate : 23.976 (24000/1001) FPS
    Color space : YUV
    Chroma subsampling : 4: 2: 0
    Bit depth : 8 bits
    Scan type : Progressive
    Bits/(Pixel*Frame) : 0.045
    Stream size : 24.6 MiB (77%)
    Writing library : x264 core 152
    Encoding settings : opencl=1/cabac=1/ref=4/deblock=1: -2: -2/analyse=0x3: 0x113/me=umh/subme=9/psy=1/psy_rd=0.70: 0.00/mixed_ref=0/me_range=32/chroma_me=1/trellis=2/8x8dct=1/cqm=0/deadzone=21, 11/fast_pskip=1/chroma_qp_offset=-2/threads=8/lookahead_threads=1/sliced_threads=0/nr=0/decimate=1/interlaced=0/bluray_compat=0/constrained_intra=0/bframes=9/b_pyramid=2/b_adapt=2/b_bias=0/direct=3/weightb=1/open_gop=0/weightp=2/keyint=250/keyint_min=23/scenecut=40/intra_refresh=0/rc_lookahead=40/rc=crf/mbtree=1/crf=16.0/qcomp=0.70/qpmin=10/qpmax=20/qpstep=4/ip_ratio=1.40/aq=1: 1.00
    Language : Japanese
    Default : Yes
    Forced : No
    Audio #1
    ID : 2
    Format : AC-3
    Format/Info : Audio Coding 3
    Commercial name : Dolby Digital
    Codec ID : A_AC3
    Duration : 1 min 32 s
    Bit rate mode : Constant
    Bit rate : 192 kb/s
    Channel(s) : 2 channels
    Channel layout : L R
    Sampling rate : 48.0 kHz
    Frame rate : 31.250 FPS (1536 SPF)
    Compression mode : Lossy
    Stream size : 2.11 MiB (7%)
    Title : Viki nDrOiDze (Shiza Project)
    Language : Russian
    Service kind : Complete Main
    Default : Yes
    Forced : No
    Audio #2
    ID : 3
    Format : FLAC
    Format/Info : Free Lossless Audio Codec
    Codec ID : A_FLAC
    Duration : 1 min 32 s
    Bit rate mode : Variable
    Bit rate : 490 kb/s
    Channel(s) : 2 channels
    Channel layout : L R
    Sampling rate : 48.0 kHz
    Frame rate : 10.425 FPS (4604 SPF)
    Bit depth : 16 bits
    Compression mode : Lossless
    Stream size : 5.38 MiB (17%)
    Title : Original
    Writing library : Lavf57.83.100
    Language : Japanese
    Default : No
    Forced : No
    Text #1
    ID : 4
    Format : ASS
    Codec ID : S_TEXT/ASS
    Codec ID/Info : Advanced Sub Station Alpha
    Duration : 11 s 840 ms
    Bit rate : 185 b/s
    Count of elements : 5
    Compression mode : Lossless
    Stream size : 274 Bytes (0%)
    Title : Forced
    Language : Russian
    Default : Yes
    Forced : No
    Text #2
    ID : 5
    Format : ASS
    Codec ID : S_TEXT/ASS
    Codec ID/Info : Advanced Sub Station Alpha
    Duration : 1 min 27 s
    Bit rate : 210 b/s
    Count of elements : 40
    Compression mode : Lossless
    Stream size : 2.26 KiB (0%)
    Title : Full
    Language : Russian
    Default : No
    Forced : No
    Время раздачи: С 8: 00 по 18: 00 МСК (до появления первых 3-5 скачавших)
    Понравился релиз? Ставь Оценку и нажми Спасибо
    Это серьёзно меня мотивирует делать подобные релизы.



    Онлайн видео Shoujo Shuumatsu Ryokou


    Shoujo Shuumatsu Ryokou | Girls Last Tour | Девушки в Последнем Путешествии [2017, TV, 12 ep + 12 sp] BDRip 1080p raw+rus торрент скачать бесплатно
    Рейтинг →
     (голосов: 1, оценка 3/5, голосовать можно 1 раз )

    Другие торренты по теме:

  • Shoujo Shuumatsu Ryokou | Поход девочек после конца света | Последнее путешествие [2017, TV, 1 из 12 эп.] WEB-DL 720p raw
  • Shoujo Shuumatsu Ryokou / Girls Last Tour / Последнее путешествие Тито и Юри [2017, TV, 1 из 12] WEB-DL 720p Raw+Rus
  • Shoujo Shuumatsu Ryokou | Girls Last Tour | Девушки в последнем путешествии [2017, TV, 12 эп. + 12 SP] BDrip 1080p raw
  • Shoujo Shuumatsu Ryokou | Девушки в последнем путешествии [2017, TV, 12 эп.] BDRip 1080p 10-bit raw+rus


    • Комментарии (0):

      Информация

      Информация

        Посетители, находящиеся в группе Гости, не могут оставлять комментарии в данной новости.

        ↓ Меню




        Популярное

        Фиксики против Кработов (2019) WEB-DLRip

        (скачиваний: 134)
        Рик и Морти / Rick and Morty (2015) WEB-DL [H.264 / 1080p] (Сезон 2, серии 1-10 из 10) Сыендук [EN / RU Sub] скачать через торрент бесплатно

        (скачиваний: 109)
        М.Ю. Демидова | ЕГЭ-2020. Физика. 30 типовых вариантов (2020) [PDF]

        (скачиваний: 80)
        Малышарики (2015-2019) WEB-DL [H.264 / 1080p-LQ] (серии 1-154 из 208) [Обновляемая]

        (скачиваний: 68)
        Рик и Морти / Rick and Morty (2013) BDRip [H.264 / 720p-LQ] (сезон 1, серии 1-11 из 11) Сыендук

        (скачиваний: 65)
        Рик и Морти / Rick and Morty (2013) BDRip [H.264 / 1080p] (Сезон 1, серии 1-11 из 11) Сыендук [EN Sub] скачать через торрент бесплатно

        (скачиваний: 46)
        Фиксики против Кработов (2019) WEB-DL [H.264 / 1080p-LQ]

        (скачиваний: 32)
        Свинка Пеппа / Peppa Pig (2004-2012) SATRip (1-4 сезоны: 208 серий из 209) скачать через торрент бесплатно

        (скачиваний: 28)
        Рик и Морти / Rick and Morty (2017) WEBRip [H.264 / 720p-LQ] (Сезон 3, серии 1 из ) Сыендук

        (скачиваний: 26)
        Жила-была царевна (2015-2019) WEB-DLRip [H.264 / 720p-LQ] (сезон 1, серии 1-18 из 26) [Обновляемая]

        (скачиваний: 21)