Подписывайся на наш канал в Telegram https://t.me/torrentok и получи доступ к торрентам без ограничений!
.
Авторизация | Регистрация
bitok.xyz
Торрент скачать бесплатно Мультфильмы торрент скачать Kill la Kill | Убей или Умри [2011, TV, 24 ep + SP] BDRip 1080p 10-bit raw+rus торрент скачать бесплатно


    Kill la Kill | Убей или Умри [2011, TV, 24 ep + SP] BDRip 1080p 10-bit raw+rus торрент скачать бесплатно

    Дата: 11-02-2020, 05:00 | .torrent скачали: 0

    Kill la Kill | Убей или Умри [2011, TV, 24 ep + SP] BDRip 1080p 10-bit raw+rusТип: TV
    Жанр: Приключения, Комедия, Фэнтези, Этти
    Продолжительность: 26 Эпизодов по 23 Мин.
    Количество серий: 26 Эпизодов + ОВА
    Дата выпуска: c04.10.2013 по28.03.2014
    Автор оригинала: Накасима Кадзуки
    Режиссер: Имаиси Хироюки
    Производство: Trigger/ Япония

    World-Art |AniDB |MyAnimelist |Shikimori

    Описание

    События происходят в школе, управляемой с помощью грубой силы президентом студенческого совета Сацуки Кирюин. Появление новой ученицы Рюко Матой, владеющей мечом в виде половинки гигантских ножниц, потрясает основы жизни школы. Рюко занята поисками таинственного убийцы её отца. Но на её пути становятся члены студенческого совета. К счастью, Рюко находит необычную говорящую школьную униформу, которая даёт ей дополнительные силы.
    Автор: admirko, Jоkir, S John ©Shikimori
    Качество Видео: BDRip,
    Видео: AVC/x264 , 1920x1080, 23.976 fps, 17.6 Mb/s, 0.354 bpp10-bit
    Язык Озвучки: Японский и Русский
    Озвучка: Одноголосая, Двухголосая, Многоголосая закадровая
    TV
    Аудио №1: AC32.0 , 48.0 kHz, 192 kb/s(Kansai Studio) |Язык:
    Аудио №2: AC32.0 , 48.0 kHz, 192 kb/s(Anifilm) |Язык:
    Аудио №3: AC32.0 , 48.0 kHz, 192 kb/s(Timecraft) |Язык:
    Аудио №4: AC32.0 , 48.0 kHz, 192 kb/s(Gezell) |Язык:
    Аудио №5: AC32.0 , 48.0 kHz, 192 kb/s(Anilibria) |Язык:
    Аудио №6: AC32.0 , 48.0 kHz, 192 kb/s(AniDub) |Язык:
    Аудио №7: AC32.0 , 48.0 kHz, 192 kb/s(RG Genshiken) |Язык:
    Аудио №8: AC32.0 , 48.0 kHz, 192 kb/s(GetSmart) |Язык:
    Аудио №9: FLAC2.0 , 48.0 kHz, 784 kb/s 16-Bit(Original) |Язык:
    Special
    Аудио №1: AC32.0 , 48.0 kHz, 192 kb/s(AniDub) |Язык:
    Аудио №2: FLAC2.0 , 48.0 kHz, 860 kb/s 16-Bit(Original) |Язык:
    Субтитры: Надписи/Полные(Timecraft Ambiente)

    Скриншоты для ознакомления





    01. If Only I Had Thorns Like a Thistle... (Мне бы шипы чертополоха, на нагую тела кожу)
    02. So Sexy She Might Pass Out (Привлекательное тело послужило б мне на славу)
    03. Junketsu (Чистейший)
    04. Dawn of a Miserable Morning (Одно несчастливое утро)
    05. Trigger (Триггер)
    06. Don`t Toy Me on a Whim (Не издевайся надо мной, себе под настроение)
    07. A Loser I Can`t Hate (Бездельник, которого нельзя ненавидеть)
    08. I`ll Wipe My Own Tears (Я сам вытру свои слёзы)
    09. A Once in a Lifetime Chance (Единственный шанс)
    10. I Want to Know More About You (Я хочу узнать тебя получше)
    11. I`m Not Your Cute Woman (Не называй меня милашкой)
    12. Spit Your Sadness Away (Сплюнь свои печали)
    13. Crazy for You (С ума по тебе схожу)
    14. Ride Like the Wind (Мчись как ветер!)
    15. Don`t Stop Me Now (Не останавливай меня)
    16. The Girl Can`t Help It (Куда ж деваться девушке)
    17. Tell Me Why (Почему)
    18. Into the Night (В ночь)
    19. Raindrops Keep Falling on My Head (Капли дождя падают мне на голову)
    20. Far from the Madding Crowd (В далеке от безумной толпы)
    21. Incomplete (Несовершенство)
    22. Tell Me How You Feel (Скажи мне своё имя)
    23. Imitation Gold (Фальшивое золото)
    24. Past the Infinite Darkness (За бесконечной тьмой)
    25.SP. Goodbye Again (Снова прощай)

    General
    Unique ID : 186947788355403761992730153441712753331 (0x8CA4D598D158A877323BAB4064F14AB3)
    Complete name : J: АнимеУбей или Умри (Kill la Kill) BDRip (2013)1. If Only I Had Thorns Like a Thistle... (Мне бы шипы чертополоха, на нагую тела кожу).mkv
    Format : Matroska
    Format version : Version 4
    File size : 3.41 GiB
    Duration : 24 min 28 s
    Overall bit rate mode : Variable
    Overall bit rate : 19.9 Mb/s
    Encoded date : UTC 2019-07-27 09: 18: 14
    Writing application : mkvmerge v35.0.0 (\'All The Love In The World\') 64-bit
    Writing library : libebml v1.3.9 + libmatroska v1.5.2
    Video
    ID : 1
    Format : AVC
    Format/Info : Advanced Video Codec
    Format profile : High 10@L5
    Format settings : CABAC/4 Ref Frames
    Format settings, CABAC : Yes
    Format settings, Reference : 4 frames
    Codec ID : V_MPEG4/ISO/AVC
    Duration : 24 min 28 s
    Bit rate : 17.6 Mb/s
    Width : 1 920 pixels
    Height : 1 080 pixels
    Display aspect ratio : 16: 9
    Frame rate mode : Constant
    Frame rate : 23.976 (24000/1001) FPS
    Color space : YUV
    Chroma subsampling : 4: 2: 0
    Bit depth : 10 bits
    Scan type : Progressive
    Bits/(Pixel*Frame) : 0.354
    Stream size : 3.01 GiB (88%)
    Writing library : x264 core 135 r2345 f0c1c53
    Encoding settings : cabac=1/ref=4/deblock=1: 1: -1/analyse=0x3: 0x113/me=umh/subme=9/psy=1/psy_rd=1.00: 0.00/mixed_ref=1/me_range=32/chroma_me=1/trellis=2/8x8dct=1/cqm=0/deadzone=21, 11/fast_pskip=1/chroma_qp_offset=-2/threads=6/lookahead_threads=1/sliced_threads=0/nr=0/decimate=1/interlaced=0/bluray_compat=0/constrained_intra=0/bframes=9/b_pyramid=2/b_adapt=2/b_bias=0/direct=1/weightb=1/open_gop=0/weightp=2/keyint=240/keyint_min=24/scenecut=40/intra_refresh=0/rc=crf/mbtree=0/crf=16.0/qcomp=0.72/qpmin=0/qpmax=81/qpstep=4/ip_ratio=1.40/pb_ratio=1.30/aq=1: 0.85
    Language : Japanese
    Default : Yes
    Forced : No
    Color range : Limited
    Color primaries : BT.709
    Transfer characteristics : BT.709
    Matrix coefficients : BT.709
    Audio #1
    ID : 2
    Format : AC-3
    Format/Info : Audio Coding 3
    Commercial name : Dolby Digital
    Codec ID : A_AC3
    Duration : 24 min 28 s
    Bit rate mode : Constant
    Bit rate : 192 kb/s
    Channel(s) : 2 channels
    Channel layout : L R
    Sampling rate : 48.0 kHz
    Frame rate : 31.250 FPS (1536 SPF)
    Compression mode : Lossy
    Stream size : 33.6 MiB (1%)
    Title : Kansai Studio
    Language : Russian
    Service kind : Complete Main
    Default : Yes
    Forced : No
    Audio #2
    ID : 3
    Format : AC-3
    Format/Info : Audio Coding 3
    Commercial name : Dolby Digital
    Codec ID : A_AC3
    Duration : 24 min 28 s
    Bit rate mode : Constant
    Bit rate : 192 kb/s
    Channel(s) : 2 channels
    Channel layout : L R
    Sampling rate : 48.0 kHz
    Frame rate : 31.250 FPS (1536 SPF)
    Compression mode : Lossy
    Stream size : 33.6 MiB (1%)
    Title : Mukuro Mosa Lali (Anifilm)
    Language : Russian
    Service kind : Complete Main
    Default : No
    Forced : No
    Audio #3
    ID : 4
    Format : AC-3
    Format/Info : Audio Coding 3
    Commercial name : Dolby Digital
    Codec ID : A_AC3
    Duration : 24 min 28 s
    Bit rate mode : Constant
    Bit rate : 192 kb/s
    Channel(s) : 2 channels
    Channel layout : L R
    Sampling rate : 48.0 kHz
    Frame rate : 31.250 FPS (1536 SPF)
    Compression mode : Lossy
    Stream size : 33.6 MiB (1%)
    Title : Scrap Kogarasi (Timecraft)
    Language : Russian
    Service kind : Complete Main
    Default : No
    Forced : No
    Audio #4
    ID : 5
    Format : AC-3
    Format/Info : Audio Coding 3
    Commercial name : Dolby Digital
    Codec ID : A_AC3
    Duration : 24 min 28 s
    Bit rate mode : Constant
    Bit rate : 192 kb/s
    Channel(s) : 2 channels
    Channel layout : L R
    Sampling rate : 48.0 kHz
    Frame rate : 31.250 FPS (1536 SPF)
    Compression mode : Lossy
    Stream size : 33.6 MiB (1%)
    Title : Gezell
    Language : Russian
    Service kind : Complete Main
    Default : No
    Forced : No
    Audio #5
    ID : 6
    Format : AC-3
    Format/Info : Audio Coding 3
    Commercial name : Dolby Digital
    Codec ID : A_AC3
    Duration : 24 min 28 s
    Bit rate mode : Constant
    Bit rate : 192 kb/s
    Channel(s) : 2 channels
    Channel layout : L R
    Sampling rate : 48.0 kHz
    Frame rate : 31.250 FPS (1536 SPF)
    Compression mode : Lossy
    Stream size : 33.6 MiB (1%)
    Title : Zendos Eladiel (Anilibria)
    Language : Russian
    Service kind : Complete Main
    Default : No
    Forced : No
    Audio #6
    ID : 7
    Format : AC-3
    Format/Info : Audio Coding 3
    Commercial name : Dolby Digital
    Codec ID : A_AC3
    Duration : 24 min 28 s
    Bit rate mode : Constant
    Bit rate : 192 kb/s
    Channel(s) : 2 channels
    Channel layout : L R
    Sampling rate : 48.0 kHz
    Frame rate : 31.250 FPS (1536 SPF)
    Compression mode : Lossy
    Stream size : 33.6 MiB (1%)
    Title : TrinaD Cuba77 (AniDub)
    Language : Russian
    Service kind : Complete Main
    Default : No
    Forced : No
    Audio #7
    ID : 8
    Format : AC-3
    Format/Info : Audio Coding 3
    Commercial name : Dolby Digital
    Codec ID : A_AC3
    Duration : 24 min 28 s
    Bit rate mode : Constant
    Bit rate : 192 kb/s
    Channel(s) : 2 channels
    Channel layout : L R
    Sampling rate : 48.0 kHz
    Frame rate : 31.250 FPS (1536 SPF)
    Compression mode : Lossy
    Stream size : 33.6 MiB (1%)
    Title : Rise (RG Genshiken)
    Language : Russian
    Service kind : Complete Main
    Default : No
    Forced : No
    Audio #8
    ID : 9
    Format : AC-3
    Format/Info : Audio Coding 3
    Commercial name : Dolby Digital
    Codec ID : A_AC3
    Duration : 24 min 28 s
    Bit rate mode : Constant
    Bit rate : 192 kb/s
    Channel(s) : 2 channels
    Channel layout : L R
    Sampling rate : 48.0 kHz
    Frame rate : 31.250 FPS (1536 SPF)
    Compression mode : Lossy
    Stream size : 33.6 MiB (1%)
    Title : Persona99 (Get Smart)
    Language : Russian
    Service kind : Complete Main
    Default : No
    Forced : No
    Audio #9
    ID : 12
    Format : FLAC
    Format/Info : Free Lossless Audio Codec
    Codec ID : A_FLAC
    Duration : 24 min 28 s
    Bit rate mode : Variable
    Bit rate : 784 kb/s
    Channel(s) : 2 channels
    Channel layout : L R
    Sampling rate : 48.0 kHz
    Frame rate : 11.719 FPS (4096 SPF)
    Bit depth : 16 bits
    Compression mode : Lossless
    Stream size : 137 MiB (4%)
    Title : Original
    Writing library : libFLAC 1.3.0 (UTC 2013-05-26)
    Language : Japanese
    Default : No
    Forced : No
    Text #1
    ID : 10
    Format : ASS
    Codec ID : S_TEXT/ASS
    Codec ID/Info : Advanced Sub Station Alpha
    Duration : 24 min 11 s
    Bit rate : 17 b/s
    Count of elements : 39
    Compression mode : Lossless
    Stream size : 3.11 KiB (0%)
    Title : Forced (Timecraft Ambiente)
    Language : Russian
    Default : Yes
    Forced : No
    Text #2
    ID : 11
    Format : ASS
    Codec ID : S_TEXT/ASS
    Codec ID/Info : Advanced Sub Station Alpha
    Duration : 24 min 25 s
    Bit rate : 172 b/s
    Count of elements : 389
    Compression mode : Lossless
    Stream size : 30.8 KiB (0%)
    Title : Full (Timecraft Ambiente)
    Language : Russian
    Default : No
    Forced : No
    Menu
    00: 00: 00.000 : en: Avant
    00: 04: 30.186 : en: Part A
    00: 12: 24.034 : en: Part B
    00: 22: 43.028 : en: ED
    00: 24: 12.993 : en: Next
    Время раздачи: С 8: 00 по 18: 00 МСК (до появления первых 3-5 скачавших)
    Понравился релиз? Ставь Оценку и нажми Спасибо
    Это серьёзно меня мотивирует делать подобные релизы.



    Онлайн видео Kill la Kill


    Kill la Kill | Убей или Умри [2011, TV, 24 ep + SP] BDRip 1080p 10-bit raw+rus торрент скачать бесплатно
    Рейтинг →
     (голосов: 1, оценка 3/5, голосовать можно 1 раз )

    Другие торренты по теме:

  • Kill la Kill [2013, TV, 24] BDrip 1080p Hi10p raw
  • Kill la Kill / Крошить-кромсать [2013, TV, 24 ep] BDRip Hi10p 720p Raw+Rus
  • My Life With The Thrill Kill Kult / Thrill Kill Kult / TKK + Side & Solo Projects - 51 Release (1988-2018) [MP3|320 Kbps] <Industrial, New Beat, Alternative>
  • Manticora - To Kill To Live To Kill (2018) Japanese Edition [FLAC|Lossless|image + .cue] <Progressive Power Metal>
  • KILL la KILL-IF (2019) [Switch] [JAP] 9.0.1 [NSZ] [License / DLC / 1.10] [En]
  • Город грехов 2: Женщина, ради которой стоит убивать / Sin City: A Dame to Kill For (2014) HDRip
  • Город грехов 2: Женщина, ради которой стоит убивать / Sin City: A Dame to Kill For (2014) BDRip [H264]
  • Нежное убийство / The Soft Kill (1994) DVDRip


    • Комментарии (0):

      Информация

      Информация

        Посетители, находящиеся в группе Гости, не могут оставлять комментарии в данной новости.

        ↓ Меню




        Популярное

        Фиксики против Кработов (2019) WEB-DLRip

        (скачиваний: 134)
        Рик и Морти / Rick and Morty (2015) WEB-DL [H.264 / 1080p] (Сезон 2, серии 1-10 из 10) Сыендук [EN / RU Sub] скачать через торрент бесплатно

        (скачиваний: 109)
        М.Ю. Демидова | ЕГЭ-2020. Физика. 30 типовых вариантов (2020) [PDF]

        (скачиваний: 80)
        Малышарики (2015-2019) WEB-DL [H.264 / 1080p-LQ] (серии 1-154 из 208) [Обновляемая]

        (скачиваний: 68)
        Рик и Морти / Rick and Morty (2013) BDRip [H.264 / 720p-LQ] (сезон 1, серии 1-11 из 11) Сыендук

        (скачиваний: 65)
        Рик и Морти / Rick and Morty (2013) BDRip [H.264 / 1080p] (Сезон 1, серии 1-11 из 11) Сыендук [EN Sub] скачать через торрент бесплатно

        (скачиваний: 46)
        Фиксики против Кработов (2019) WEB-DL [H.264 / 1080p-LQ]

        (скачиваний: 32)
        Свинка Пеппа / Peppa Pig (2004-2012) SATRip (1-4 сезоны: 208 серий из 209) скачать через торрент бесплатно

        (скачиваний: 28)
        Рик и Морти / Rick and Morty (2017) WEBRip [H.264 / 720p-LQ] (Сезон 3, серии 1 из ) Сыендук

        (скачиваний: 26)
        Жила-была царевна (2015-2019) WEB-DLRip [H.264 / 720p-LQ] (сезон 1, серии 1-18 из 26) [Обновляемая]

        (скачиваний: 21)