ВАЖНО! Сайт скоро заблокируют! Подписывайся на наш канал в Telegram https://t.me/torrentok и получи доступ к торрентам без ограничений!
.
Авторизация | Регистрация
bitok.xyz
Торрент скачать бесплатно Мультфильмы торрент скачать Волшебный халат (1964) DVDRip [H.264] торрент скачать бесплатно


    Волшебный халат (1964) DVDRip [H.264] торрент скачать бесплатно

    Дата: 12-02-2020, 05:00 | .torrent скачали: 2

    Волшебный халат (1964) DVDRip [H.264]Производство: СССР, Азербайджанфильм
    Жанр: Детский
    Режиссер: Али Саттар Атакишиев

    Актеры
    Азер Курбанов, Солмаз Хатамова, Николай Логинов, Юсиф Шейхов, Али Ага Агаев, Анатолий Фалькович, Ага Гусейн Джавадов, Исмаил Османлы, Гусейн Садыхов, Афрасияб Мамедов

    Описание

    На праздник к азербайджанским пионерам приезжает известный фокусник Ио-Кио, который дарит ребятам волшебный халат. Надев этот халат можно перенестись и в прошлое и в будущее. О том, какие невероятные приключения происходят со школьнкиами Рашидом и Зарифой, когда они надевали волшебный халат, и рассказывает этот фильм. Замечательный фильм, хоть и наивный.

    Возраст: этот продукт не был классифицирован
    Релиз от: ФЕНИКС
    Продолжительность: 01: 15: 43
    Качество видео: DVDRip
    Субтитры: русский язык
    Видео: AVC/H.264, 702x568@748x568, ~1600 Kbps
    Аудио1: AC3, 2 ch, 192 Kbps - советский дубляж
    Аудио2: AC3, 1 ch, 128 Kbps - оригинальный азербайджанский язык
    Аудио3: AC3, 1 ch, 128 Kbps - немецкий дубляж
    Общее
    Уникальный идентификатор : 190218869966630256049271055887896034702 (0x8F1AD25F3B5DEF2482D7215368763D8E)
    Полное имя : U: Волшебный халат (1964) DVDRip.mkv
    Формат : Matroska
    Версия формата : Version 4/Version 2
    Размер файла : 1, 08 Гбайт
    Продолжительность : 1 ч. 15 м.
    Общий поток : 2049 Кбит/сек
    Дата кодирования : UTC 2020-01-19 09: 20: 48
    Программа кодирования : mkvmerge v6.7.0 (\'Back to the Ground\') 32bit built on Jan 8 2014 15: 03: 17
    Библиотека кодирования : libebml v1.3.0 + libmatroska v1.4.1
    Видео
    Идентификатор : 1
    Формат : AVC
    Формат/Информация : Advanced Video Codec
    Профиль формата : High@L4.1
    Настройки формата : CABAC/8 Ref Frames
    Параметр CABAC формата : Да
    Параметр RefFrames формата : 8 кадров
    Идентификатор кодека : V_MPEG4/ISO/AVC
    Продолжительность : 1 ч. 15 м.
    Битрейт : 1600 Кбит/сек
    Ширина : 702 пикселя
    Высота : 568 пикселей
    Соотношение сторон : 4: 3
    Режим частоты кадров : Постоянный
    Частота кадров : 25, 000 кадров/сек
    Цветовое пространство : YUV
    Субдискретизация насыщенности : 4: 2: 0
    Битовая глубина : 8 бит
    Тип развёртки : Прогрессивная
    Бит/(Пиксели*Кадры) : 0.161
    Размер потока : 845 Мбайт (76%)
    Библиотека кодирования : x264 core 157 r2958 57baac4
    Настройки программы : cabac=1/ref=8/deblock=1: 0: 0/analyse=0x3: 0x133/me=umh/subme=9/psy=1/psy_rd=1.00: 0.00/mixed_ref=1/me_range=24/chroma_me=1/trellis=2/8x8dct=1/cqm=0/deadzone=21, 11/fast_pskip=1/chroma_qp_offset=-2/threads=18/lookahead_threads=3/sliced_threads=0/nr=0/decimate=1/interlaced=0/bluray_compat=0/constrained_intra=0/bframes=7/b_pyramid=2/b_adapt=2/b_bias=0/direct=3/weightb=1/open_gop=0/weightp=2/keyint=250/keyint_min=25/scenecut=40/intra_refresh=0/rc_lookahead=60/rc=2pass/mbtree=1/bitrate=1600/ratetol=1.0/qcomp=0.60/qpmin=0/qpmax=69/qpstep=4/cplxblur=20.0/qblur=0.5/ip_ratio=1.40/aq=1: 1.00
    Default : Да
    Forced : Нет
    Statistics Tags Issue : mkvmerge v42.0.0 (\'Overtime\') 64-bit 2020-01-19 02: 38: 48/mkvmerge v6.7.0 (\'Back to the Ground\') 32bit built on Jan 8 2014 15: 03: 17 2020-01-19 09: 20: 48
    FromStats_BitRate : 1600082
    FromStats_Duration : 01: 15: 43.200000000
    FromStats_FrameCount : 113580
    FromStats_StreamSize : 908686723
    Аудио #1
    Идентификатор : 2
    Формат : AC-3
    Формат/Информация : Audio Coding 3
    Идентификатор кодека : A_AC3
    Продолжительность : 1 ч. 15 м.
    Вид битрейта : Постоянный
    Битрейт : 192 Кбит/сек
    Каналы : 2 канала
    Расположение каналов : Front: L R
    Частота : 48, 0 КГц
    Частота кадров : 31, 250 кадров/сек (1536 SPF)
    Битовая глубина : 16 бит
    Метод сжатия : С потерями
    Размер потока : 104 Мбайт (9%)
    Язык : Russian
    ServiceKind/String : Complete Main
    Default : Да
    Forced : Нет
    Statistics Tags Issue : mkvmerge v42.0.0 (\'Overtime\') 64-bit 2020-01-19 02: 38: 48/mkvmerge v6.7.0 (\'Back to the Ground\') 32bit built on Jan 8 2014 15: 03: 17 2020-01-19 09: 20: 48
    FromStats_BitRate : 192000
    FromStats_Duration : 01: 15: 12.416000000
    FromStats_FrameCount : 141013
    FromStats_StreamSize : 108297984
    Аудио #2
    Идентификатор : 3
    Формат : AC-3
    Формат/Информация : Audio Coding 3
    Идентификатор кодека : A_AC3
    Продолжительность : 1 ч. 15 м.
    Вид битрейта : Постоянный
    Битрейт : 128 Кбит/сек
    Каналы : 1 канал
    Расположение каналов : Front: C
    Частота : 48, 0 КГц
    Частота кадров : 31, 250 кадров/сек (1536 SPF)
    Битовая глубина : 16 бит
    Метод сжатия : С потерями
    Размер потока : 69, 3 Мбайт (6%)
    Язык : Azerbaijani
    ServiceKind/String : Complete Main
    Default : Нет
    Forced : Нет
    Statistics Tags Issue : mkvmerge v42.0.0 (\'Overtime\') 64-bit 2020-01-19 02: 38: 48/mkvmerge v6.7.0 (\'Back to the Ground\') 32bit built on Jan 8 2014 15: 03: 17 2020-01-19 09: 20: 48
    FromStats_BitRate : 128000
    FromStats_Duration : 01: 15: 43.200000000
    FromStats_FrameCount : 141975
    FromStats_StreamSize : 72691200
    Аудио #3
    Идентификатор : 4
    Формат : AC-3
    Формат/Информация : Audio Coding 3
    Идентификатор кодека : A_AC3
    Продолжительность : 1 ч. 15 м.
    Вид битрейта : Постоянный
    Битрейт : 128 Кбит/сек
    Каналы : 1 канал
    Расположение каналов : Front: C
    Частота : 48, 0 КГц
    Частота кадров : 31, 250 кадров/сек (1536 SPF)
    Битовая глубина : 16 бит
    Метод сжатия : С потерями
    Размер потока : 69, 3 Мбайт (6%)
    Язык : German
    ServiceKind/String : Complete Main
    Default : Нет
    Forced : Нет
    Statistics Tags Issue : mkvmerge v42.0.0 (\'Overtime\') 64-bit 2020-01-19 02: 38: 48/mkvmerge v6.7.0 (\'Back to the Ground\') 32bit built on Jan 8 2014 15: 03: 17 2020-01-19 09: 20: 48
    FromStats_BitRate : 128000
    FromStats_Duration : 01: 15: 43.264000000
    FromStats_FrameCount : 141977
    FromStats_StreamSize : 72692224
    Текст #1
    Идентификатор : 5
    Формат : UTF-8
    Идентификатор кодека : S_TEXT/UTF8
    Идентификатор кодека/Информация : UTF-8 Plain Text
    Язык : Russian
    Default : Да
    Forced : Нет
    Statistics Tags Issue : mkvmerge v42.0.0 (\'Overtime\') 64-bit 2020-01-19 02: 38: 48/mkvmerge v6.7.0 (\'Back to the Ground\') 32bit built on Jan 8 2014 15: 03: 17 2020-01-19 09: 20: 48
    FromStats_BitRate : 1
    FromStats_Duration : 01: 15: 02.494000000
    FromStats_FrameCount : 11
    FromStats_StreamSize : 618
    Текст #2
    Идентификатор : 6
    Формат : UTF-8
    Идентификатор кодека : S_TEXT/UTF8
    Идентификатор кодека/Информация : UTF-8 Plain Text
    Язык : Russian
    Default : Нет
    Forced : Нет
    Statistics Tags Issue : mkvmerge v42.0.0 (\'Overtime\') 64-bit 2020-01-19 02: 38: 48/mkvmerge v6.7.0 (\'Back to the Ground\') 32bit built on Jan 8 2014 15: 03: 17 2020-01-19 09: 20: 48
    FromStats_BitRate : 105
    FromStats_Duration : 01: 15: 02.494000000
    FromStats_FrameCount : 829
    FromStats_StreamSize : 59519


    Онлайн видео Барашек Шон: Фермагеддон


    Волшебный халат (1964) DVDRip [H.264] торрент скачать бесплатно
    Рейтинг →
     (голосов: 1, оценка 5/5, голосовать можно 1 раз )

    Другие торренты по теме:

  • Хроники Нарнии: Лев, колдунья и волшебный шкаф / The Chronicles of Narnia: The Lion, the Witch and the Wardrobe (2005) BDRemux [1080p] скачать через торрент бесплатно
  • Magic Kaito 1412 / Волшебный Кайто [2014, TV, 1 из 24] HDTV 720p Raw скачать через торрент бесплатно
  • Волшебный футбол / Настольный футбол / Metegol (2013) HDRip (AlexFilm) скачать через торрент бесплатно
  • Волшебный футбол / Настольный футбол / Metegol (2013) BDRip [720p] скачать через торрент бесплатно
  • Волшебный футбол / Настольный футбол / Metegol (2013) BDRip (AlexFilm) скачать через торрент бесплатно
  • Волшебный футбол / Настольный футбол / Metegol (2013) BDRip [1080p]
  • Волшебный футбол / Настольный футбол / Большая игра / Metegol (2013) BDRip [1080p] 3D [Вертикальная анаморфная стереопара]
  • Волшебный фонарь (1976) TVRip скачать через торрент бесплатно


    • Комментарии (0):

      Информация

      Информация

        Посетители, находящиеся в группе Гости, не могут оставлять комментарии в данной новости.

        ↓ Меню




        Популярное

        Металионы / Metalions (2018-2019) WEB-DLRip [H.264 / 720p-LQ] (сезон 1, серии 1-52 из 52) [Обновляемая]

        (скачиваний: 11)
        Фиксики против Кработов (2019) WEB-DL [H.264 / 1080p-LQ]

        (скачиваний: 10)
        Роботы-пожарные / Fire Robo (2016) WEB-DLRip [H.264 / 720p-LQ] (сезон 1, серии 1-26 из 26) [Обновляемая]

        (скачиваний: 8)
        Фиксики против Кработов (2019) WEB-DLRip

        (скачиваний: 7)
        Жила-была царевна (2015-2019) WEB-DLRip [H.264 / 720p-LQ] (сезон 1, серии 1-18 из 26) [Обновляемая]

        (скачиваний: 7)
        Лея Уотерс | Переключение на силу. Как научиться видеть в детях сильные стороны, чтобы помочь им расцвести (2019) [EPUB]

        (скачиваний: 5)
        Kaze no Na wa Amnesia / A Wind Named Amnesia / Ветер амнезии [1990, MV] DVDRip raw

        (скачиваний: 5)
        Канакина В. П., Горецкий В. Г. Электронное приложение к учебнику «Русский язык», 2 класс (2012) [ISO] скачать через торрент бесплатно

        (скачиваний: 5)
        Александр Нилл | Воспитание свободой. Школа Саммерхилл (2020) [EPUB]

        (скачиваний: 5)
        Роберт Кийосаки | Богатый папа, бедный папа для подростков (2014) [PDF, FB2]

        (скачиваний: 5)