Подписывайся на наш канал в Telegram https://t.me/torrentok и получи доступ к торрентам без ограничений!
.
Авторизация | Регистрация
bitok.xyz
Торрент скачать бесплатно Мультфильмы торрент скачать Как приручить дракона / How to Train Your Dragon (2010, 2014, 2019) BDRip [H.264 / 1080p] [Трилогия] торрент скачать бесплатно

    Как приручить дракона / How to Train Your Dragon (2010, 2014, 2019) BDRip [H.264 / 1080p] [Трилогия] торрент скачать бесплатно

    Дата: 12-02-2020, 05:00 | .torrent скачали: 0

    Как приручить дракона / How to Train Your Dragon (2010, 2014, 2019) BDRip [H.264 / 1080p] [Трилогия]Производство: США/DreamWorks Animation
    Жанр: мультфильм, фэнтези, комедия, приключения, семейный
    Режиссер: Дин ДеБлуа, Крис Сандерс

    Описание

    Вы узнаете историю подростка Иккинга, которому не слишком близки традиции его героического племени, много лет ведущего войну с драконами. Мир Иккинга переворачивается с ног на голову, когда он неожиданно встречает дракона Беззубика, который поможет ему и другим викингам увидеть привычный мир с совершенно другой стороны…
    Продолжительность: 01: 37: 51/01: 41: 55/01: 44: 06
    Качество видео: BDRip 1080p
    Перевод: Дублированный
    Субтитры: русские, английские
    Видео: AVC/H.264, 1920x816, ~10 - 13 mbps
    Аудио 1: AC3, 6 ch, 640 kbps, Русский (DUB BD CEE)
    Аудио 2: DTS, 6 ch, 1510 kbps, АнглийскийКак приручить дракона (2010)/How to Train Your Dragon (2010) BDRip H.264/1080p
    Производство: США/DreamWorks Animation
    Жанр: мультфильм, фэнтези, комедия, приключения, семейный
    Режиссер: Дин ДеБлуа, Крис Сандерс

    Описание

    Вы узнаете историю подростка Иккинга, которому не слишком близки традиции его героического племени, много лет ведущего войну с драконами. Мир Иккинга переворачивается с ног на голову, когда он неожиданно встречает дракона Беззубика, который поможет ему и другим викингам увидеть привычный мир с совершенно другой стороны…

    Возраст: 6+ (зрителям, достигшим 6 лет)
    Рейтинг MPAA: PG (рекомендуется присутствие родителей)
    Продолжительность: 01: 37: 51
    Качество видео: BDRip
    Перевод: Дублированный
    Субтитры: русские, английские
    Видео: AVC/H.264, 1920x816, ~10 mbps
    Аудио 1: AC3, 6 ch, 640 kbps, Русский (DUB BD CEE)
    Аудио 2: DTS, 6 ch, 1510 kbps, Английский
    Общее
    Уникальный идентификатор : 206213696240340460296682108594992802882 (0x9B2350315CACCD4F8B70CD301DE96C42)
    Полное имя : D: MULTDragonHow.to.Train.Your.Dragon.2010.BluRay.mkv
    Формат : Matroska
    Версия формата : Version 4
    Размер файла : 8, 30 Гбайт
    Продолжительность : 1 ч. 37 м.
    Общий поток : 12, 1 Мбит/сек
    Название фильма : How to Train Your Dragon (2010) - Release for HDCLUB
    Дата кодирования : UTC 2020-02-11 06: 45: 05
    Программа кодирования : mkvmerge v8.2.0 (\'World of Adventure\') 64bit
    Библиотека кодирования : libebml v1.3.1 + libmatroska v1.4.2
    Видео
    Идентификатор : 1
    Формат : AVC
    Формат/Информация : Advanced Video Codec
    Профиль формата : High@L4.1
    Настройки формата : CABAC/5 Ref Frames
    Параметр CABAC формата : Да
    Параметр RefFrames формата : 5 кадров
    Идентификатор кодека : V_MPEG4/ISO/AVC
    Продолжительность : 1 ч. 37 м.
    Битрейт : 10000 Кбит/сек
    Ширина : 1920 пикселей
    Высота : 816 пикселей
    Соотношение сторон : 2, 35: 1
    Режим частоты кадров : Постоянный
    Частота кадров : 23, 976 (24000/1001) кадра/сек
    Цветовое пространство : YUV
    Субдискретизация насыщенности : 4: 2: 0
    Битовая глубина : 8 бит
    Тип развёртки : Прогрессивная
    Бит/(Пиксели*Кадры) : 0.266
    Размер потока : 6, 83 Гбайт (82%)
    Заголовок : Release for HDCLUB
    Библиотека кодирования : x264 core 105 r1732 2b04482
    Настройки программы : cabac=1/ref=5/deblock=1: -3: -3/analyse=0x3: 0x113/me=tesa/subme=10/psy=1/psy_rd=0.80: 0.00/mixed_ref=1/me_range=16/chroma_me=1/trellis=2/8x8dct=1/cqm=0/deadzone=21, 11/fast_pskip=0/chroma_qp_offset=-2/threads=12/sliced_threads=0/nr=0/decimate=0/interlaced=0/constrained_intra=0/bframes=8/b_pyramid=2/b_adapt=2/b_bias=0/direct=3/weightb=1/open_gop=0/weightp=2/keyint=250/keyint_min=23/scenecut=40/intra_refresh=0/rc=2pass/mbtree=0/bitrate=10000/ratetol=1.0/qcomp=0.60/qpmin=10/qpmax=51/qpstep=4/cplxblur=20.0/qblur=0.5/ip_ratio=1.40/pb_ratio=1.30/aq=1: 0.90/zones=800, 16590, b=1.8/31716, 35492, b=1.8/47813, 50464, b=1.8/60132, 61094, b=1.8/79839, 82652, b=1.8
    Язык : English
    Default : Да
    Forced : Нет
    Аудио #1
    Идентификатор : 2
    Формат : AC-3
    Формат/Информация : Audio Coding 3
    Коммерческое название : Dolby Digital
    Идентификатор кодека : A_AC3
    Продолжительность : 1 ч. 37 м.
    Вид битрейта : Постоянный
    Битрейт : 640 Кбит/сек
    Каналы : 6 каналов
    ChannelLayout : L R C LFE Ls Rs
    Частота : 48, 0 КГц
    Частота кадров : 31, 250 кадров/сек (1536 SPF)
    Метод сжатия : С потерями
    Размер потока : 448 Мбайт (5%)
    Заголовок : AC3; 640 Kbps @ 5.1 Kbps - (Dubbing) Blu-ray CEE
    Язык : Russian
    ServiceKind/String : Complete Main
    Default : Да
    Forced : Нет
    Аудио #2
    Идентификатор : 3
    Формат : DTS
    Формат/Информация : Digital Theater Systems
    Идентификатор кодека : A_DTS
    Продолжительность : 1 ч. 37 м.
    Вид битрейта : Постоянный
    Битрейт : 1510 Кбит/сек
    Каналы : 6 каналов
    ChannelLayout : C L R Ls Rs LFE
    Частота : 48, 0 КГц
    Частота кадров : 93, 750 кадра/сек (512 SPF)
    Битовая глубина : 24 бит
    Метод сжатия : С потерями
    Размер потока : 1, 03 Гбайт (12%)
    Заголовок : DTS; 1536 Kbps @ 5.1 ch (from TrueHD)
    Язык : English
    Default : Нет
    Forced : Нет
    Текст #1
    Идентификатор : 4
    Формат : UTF-8
    Идентификатор кодека : S_TEXT/UTF8
    Идентификатор кодека/Информация : UTF-8 Plain Text
    Продолжительность : 1 ч. 36 м.
    Битрейт : 71 бит/сек
    ElementCount : 875
    Размер потока : 50, 8 Кбайт (0%)
    Заголовок : Blu-ray CEE
    Язык : Russian
    Default : Нет
    Forced : Нет
    Текст #2
    Идентификатор : 5
    Формат : UTF-8
    Идентификатор кодека : S_TEXT/UTF8
    Идентификатор кодека/Информация : UTF-8 Plain Text
    Продолжительность : 1 ч. 28 м.
    Битрейт : 45 бит/сек
    ElementCount : 866
    Размер потока : 29, 4 Кбайт (0%)
    Язык : English
    Default : Нет
    Forced : Нет
    Меню
    00: 00: 00.000 : : 00: 00: 00.000
    00: 08: 39.811 : : 00: 08: 39.811
    00: 11: 31.983 : : 00: 11: 31.983
    00: 15: 11.035 : : 00: 15: 11.035
    00: 21: 57.107 : : 00: 21: 57.107
    00: 27: 41.702 : : 00: 27: 41.702
    00: 33: 14.201 : : 00: 33: 14.201
    00: 39: 07.136 : : 00: 39: 07.136
    00: 43: 28.731 : : 00: 43: 28.731
    00: 47: 08.367 : : 00: 47: 08.367
    00: 49: 47.193 : : 00: 49: 47.193
    00: 59: 55.801 : : 00: 59: 55.801
    01: 04: 47.383 : : 01: 04: 47.383
    01: 09: 28.164 : : 01: 09: 28.164
    01: 12: 38.187 : : 01: 12: 38.187
    01: 23: 26.043 : : 01: 23: 26.043
    01: 28: 54.496 : : 01: 28: 54.496

    Скриншоты для ознакомления



    Все одноименные релизы в Клубе Как приручить дракона 2 (2014)/How to Train Your Dragon 2 (2014) BDRip
    Производство: США/DreamWorks Animation
    Жанр: мультфильм, фэнтези, комедия, приключения, семейный
    Режиссер: Дин ДеБлуа

    Описание

    С момента примирения викингов и драконов прошло пять лет. Пока Астрид, Сморкала и остальные ребята проводят время, соревнуясь друг с другом в популярных на острове драконьих гонках, Иккинг и Беззубик путешествуют по небу, составляя карту неизвестных мест. Когда одно из их приключений приводит к открытию тайной ледяной пещеры, которая является домом для сотен ранее невиданных диких драконов и таинственного драконьего всадника, два друга оказываются в центре битвы за защиту мира.

    Возраст: 6+ (зрителям, достигшим 6 лет)
    Рейтинг MPAA: PG (рекомендуется присутствие родителей)
    Продолжительность: 01: 41: 55
    Качество видео: BDRip 1080p
    Перевод: Дублированный
    Субтитры: русские, английские
    Видео: AVC/H.264, 1920x816, ~13 mbps
    Аудио 1: AC3, 6 ch, 640 kbps, Русский (DUB BD CEE)
    Аудио 2: DTS, 6 ch, 1510 kbps, Английский
    Общее
    Уникальный идентификатор : 193088492664410889715403983302053589789 (0x91437DB1C6B030C5B6CA3FD37603F31D)
    Полное имя : D: MULTDragonHow.to.Train.Your.Dragon.2.2014.Bluray.mkv
    Формат : Matroska
    Версия формата : Version 4
    Размер файла : 10, 8 Гбайт
    Продолжительность : 1 ч. 41 м.
    Общий поток : 15, 1 Мбит/сек
    Название фильма : Как приручить дракона 2/How to Train Your Dragon 2 (2010)
    Дата кодирования : UTC 2020-02-11 06: 54: 09
    Программа кодирования : mkvmerge v8.2.0 (\'World of Adventure\') 64bit
    Библиотека кодирования : libebml v1.3.1 + libmatroska v1.4.2
    Видео
    Идентификатор : 1
    Формат : AVC
    Формат/Информация : Advanced Video Codec
    Профиль формата : High@L4.1
    Настройки формата : CABAC/5 Ref Frames
    Параметр CABAC формата : Да
    Параметр RefFrames формата : 5 кадров
    Идентификатор кодека : V_MPEG4/ISO/AVC
    Продолжительность : 1 ч. 41 м.
    Битрейт : 13, 0 Мбит/сек
    Ширина : 1920 пикселей
    Высота : 816 пикселей
    Соотношение сторон : 2, 35: 1
    Режим частоты кадров : Постоянный
    Частота кадров : 23, 976 (24000/1001) кадра/сек
    Цветовое пространство : YUV
    Субдискретизация насыщенности : 4: 2: 0
    Битовая глубина : 8 бит
    Тип развёртки : Прогрессивная
    Бит/(Пиксели*Кадры) : 0.345
    Размер потока : 9, 23 Гбайт (86%)
    Библиотека кодирования : x264 core 142 r2479 dd79a61
    Настройки программы : cabac=1/ref=5/deblock=1: -3: -3/analyse=0x3: 0x133/me=umh/subme=10/psy=1/psy_rd=0.90: 0.00/mixed_ref=1/me_range=48/chroma_me=1/trellis=2/8x8dct=1/cqm=0/deadzone=21, 11/fast_pskip=1/chroma_qp_offset=-2/threads=6/lookahead_threads=1/sliced_threads=0/nr=0/decimate=1/interlaced=0/bluray_compat=0/constrained_intra=0/bframes=8/b_pyramid=2/b_adapt=2/b_bias=0/direct=3/weightb=1/open_gop=0/weightp=2/keyint=250/keyint_min=23/scenecut=40/intra_refresh=0/rc_lookahead=150/rc=crf/mbtree=0/crf=15.8/qcomp=0.60/qpmin=0/qpmax=69/qpstep=4/vbv_maxrate=50000/vbv_bufsize=62500/crf_max=0.0/nal_hrd=none/filler=0/ip_ratio=1.30/pb_ratio=1.20/aq=1: 0.90/zones=698, 1450, crf=13.5/2082, 2161, crf=13.5/25706, 30872, crf=13.5/36550, 37425, crf=13.5/37568, 37965, crf=13.5/39188, 41530, crf=13.5/41823, 41948, crf=13.5/43232, 46886, crf=13.5/54227, 56358, crf=13.5/77845, 78012, crf=13.5/80363, 80942, crf=13.5/82433, 82871, crf=13.5/102207, 102265, crf=13.5/107329, 109359, crf=13.5/110396, 110736, crf=13.5/113424, 116130, crf=13.5/116996, 118723, crf=13.5
    Язык : English
    Default : Да
    Forced : Нет
    Аудио #1
    Идентификатор : 2
    Формат : AC-3
    Формат/Информация : Audio Coding 3
    Коммерческое название : Dolby Digital
    Идентификатор кодека : A_AC3
    Продолжительность : 1 ч. 41 м.
    Вид битрейта : Постоянный
    Битрейт : 640 Кбит/сек
    Каналы : 6 каналов
    ChannelLayout : L R C LFE Ls Rs
    Частота : 48, 0 КГц
    Частота кадров : 31, 250 кадров/сек (1536 SPF)
    Метод сжатия : С потерями
    Размер потока : 467 Мбайт (4%)
    Заголовок : RUS Dub BD CEE
    Язык : Russian
    ServiceKind/String : Complete Main
    Default : Да
    Forced : Нет
    Аудио #2
    Идентификатор : 3
    Формат : DTS ES
    Формат/Информация : Digital Theater Systems
    Коммерческое название : DTS-ES Matrix
    Идентификатор кодека : A_DTS
    Продолжительность : 1 ч. 41 м.
    Вид битрейта : Постоянный
    Битрейт : 1509 Кбит/сек
    Каналы : 6 каналов
    Channel(s)_Original : 7 каналов
    ChannelLayout_Original : C L R Ls Rs Cs LFE
    Частота : 48, 0 КГц
    Частота кадров : 93, 750 кадра/сек (512 SPF)
    Битовая глубина : 24 бит
    Метод сжатия : С потерями
    Размер потока : 1, 07 Гбайт (10%)
    Заголовок : ENG
    Язык : English
    Default : Нет
    Forced : Нет
    Текст #1
    Идентификатор : 4
    Формат : UTF-8
    Идентификатор кодека : S_TEXT/UTF8
    Идентификатор кодека/Информация : UTF-8 Plain Text
    Продолжительность : 1 ч. 40 м.
    Битрейт : 69 бит/сек
    ElementCount : 1145
    Размер потока : 51, 4 Кбайт (0%)
    Язык : Russian
    Default : Нет
    Forced : Нет
    Текст #2
    Идентификатор : 5
    Формат : UTF-8
    Идентификатор кодека : S_TEXT/UTF8
    Идентификатор кодека/Информация : UTF-8 Plain Text
    Продолжительность : 1 ч. 31 м.
    Битрейт : 47 бит/сек
    ElementCount : 1144
    Размер потока : 31, 6 Кбайт (0%)
    Язык : English
    Default : Нет
    Forced : Нет
    Меню
    00: 00: 00.000 : en: Chapter 1
    00: 03: 27.999 : en: Chapter 2
    00: 05: 20.695 : en: Chapter 3
    00: 07: 46.007 : en: Chapter 4
    00: 10: 16.032 : en: Chapter 5
    00: 13: 16.337 : en: Chapter 6
    00: 16: 59.060 : en: Chapter 7
    00: 20: 01.700 : en: Chapter 8
    00: 23: 43.255 : en: Chapter 9
    00: 27: 14.466 : en: Chapter 10
    00: 29: 21.468 : en: Chapter 11
    00: 33: 41.937 : en: Chapter 12
    00: 37: 05.473 : en: Chapter 13
    00: 39: 06.970 : en: Chapter 14
    00: 40: 59.165 : en: Chapter 15
    00: 45: 03.993 : en: Chapter 16
    00: 47: 16.625 : en: Chapter 17
    00: 51: 51.525 : en: Chapter 18
    00: 54: 35.731 : en: Chapter 19
    00: 56: 15.998 : en: Chapter 20
    01: 00: 33.171 : en: Chapter 21
    01: 04: 28.782 : en: Chapter 22
    01: 06: 34.949 : en: Chapter 23
    01: 09: 44.138 : en: Chapter 24
    01: 14: 01.854 : en: Chapter 25
    01: 18: 35.127 : en: Chapter 26
    01: 21: 07.154 : en: Chapter 27
    01: 22: 55.053 : en: Chapter 28
    01: 24: 30.065 : en: Chapter 29
    01: 28: 04.654 : en: Chapter 30
    01: 31: 03.500 : en: Chapter 31
    01: 32: 21.995 : en: Chapter 32

    Скриншоты для ознакомления



    Все одноименные релизы в Клубе Как приручить дракона 3 (2019)/How to Train Your Dragon: The Hidden World (2019) BDRip H.264/1080p
    Производство: США/DreamWorks Animation
    Жанр: мультфильм, фэнтези, комедия, приключения, семейный
    Режиссер: Дин ДеБлуа

    Описание

    Когда-то викинги жили в гармонии с драконами. В те времена они делили радость, горе… и последние штаны. Казалось, что так будет всегда, но появление загадочной Дневной Фурии изменило жизнь острова. И теперь Иккинг и Беззубик столкнутся с безжалостным охотником на драконов, жаждущим уничтожить все, что им дорого.

    Возраст: 6+ (зрителям, достигшим 6 лет)
    Рейтинг MPAA: PG (рекомендуется присутствие родителей)
    Продолжительность: 01: 44: 06
    Качество видео: BDRip 1080p
    Перевод: Дублированный
    Субтитры: русские, английские
    Видео: AVC/H.264, 1920x816, ~13.2 mbps
    Аудио 1: AC3, 6 ch, 640 kbps, Русский (DUB BD CEE)
    Аудио 2: DTS, 6 ch, 1510 kbps, Английский
    Общее
    Уникальный идентификатор : 237990192719635227956321266504122668044 (0xB30B3E6DCCF0F9A6AE75FA3264C6940C)
    Полное имя : D: MULTDragonHow.to.Train.Your.Dragon.The.Hidden.World.2019.1080p.BluRay.mkv
    Формат : Matroska
    Версия формата : Version 4
    Размер файла : 11, 1 Гбайт
    Продолжительность : 1 ч. 44 м.
    Общий поток : 15, 3 Мбит/сек
    Название фильма : How to Train Your Dragon: The Hidden World (2019)
    Дата кодирования : UTC 2020-02-11 07: 11: 48
    Программа кодирования : mkvmerge v8.2.0 (\'World of Adventure\') 64bit
    Библиотека кодирования : libebml v1.3.1 + libmatroska v1.4.2
    Видео
    Идентификатор : 1
    Формат : AVC
    Формат/Информация : Advanced Video Codec
    Профиль формата : High@L4.1
    Настройки формата : CABAC/5 Ref Frames
    Параметр CABAC формата : Да
    Параметр RefFrames формата : 5 кадров
    Идентификатор кодека : V_MPEG4/ISO/AVC
    Продолжительность : 1 ч. 44 м.
    Битрейт : 13, 2 Мбит/сек
    Ширина : 1920 пикселей
    Высота : 816 пикселей
    Соотношение сторон : 2, 35: 1
    Режим частоты кадров : Постоянный
    Частота кадров : 23, 976 (24000/1001) кадра/сек
    Цветовое пространство : YUV
    Субдискретизация насыщенности : 4: 2: 0
    Битовая глубина : 8 бит
    Тип развёртки : Прогрессивная
    Бит/(Пиксели*Кадры) : 0.351
    Размер потока : 9, 57 Гбайт (86%)
    Заголовок : potroks
    Библиотека кодирования : x264 core 157 r2935 545de2f
    Настройки программы : cabac=1/ref=5/deblock=1: -2: -2/analyse=0x3: 0x113/me=umh/subme=11/psy=1/psy_rd=1.05: 0.05/mixed_ref=1/me_range=32/chroma_me=1/trellis=2/8x8dct=1/cqm=0/deadzone=21, 11/fast_pskip=0/chroma_qp_offset=-3/threads=9/lookahead_threads=1/sliced_threads=0/nr=0/decimate=0/interlaced=0/bluray_compat=0/constrained_intra=0/bframes=9/b_pyramid=2/b_adapt=2/b_bias=0/direct=3/weightb=1/open_gop=0/weightp=2/keyint=240/keyint_min=23/scenecut=40/intra_refresh=0/rc_lookahead=100/rc=2pass/mbtree=0/bitrate=13185/ratetol=1.0/qcomp=0.70/qpmin=0/qpmax=69/qpstep=4/cplxblur=20.0/qblur=0.5/vbv_maxrate=50000/vbv_bufsize=62500/nal_hrd=none/filler=0/ip_ratio=1.40/pb_ratio=1.30/aq=1: 0.70
    Язык : English
    Default : Да
    Forced : Нет
    Аудио #1
    Идентификатор : 2
    Формат : AC-3
    Формат/Информация : Audio Coding 3
    Коммерческое название : Dolby Digital
    Идентификатор кодека : A_AC3
    Продолжительность : 1 ч. 44 м.
    Вид битрейта : Постоянный
    Битрейт : 640 Кбит/сек
    Каналы : 6 каналов
    ChannelLayout : L R C LFE Ls Rs
    Частота : 48, 0 КГц
    Частота кадров : 31, 250 кадров/сек (1536 SPF)
    Метод сжатия : С потерями
    Размер потока : 477 Мбайт (4%)
    Заголовок : Dub | DD 5.1 @ 640 kbps - Blu-Ray 4K EUR
    Язык : Russian
    ServiceKind/String : Complete Main
    Default : Да
    Forced : Да
    Аудио #2
    Идентификатор : 3
    Формат : DTS
    Формат/Информация : Digital Theater Systems
    Идентификатор кодека : A_DTS
    Продолжительность : 1 ч. 44 м.
    Вид битрейта : Постоянный
    Битрейт : 1510 Кбит/сек
    Каналы : 6 каналов
    ChannelLayout : C L R Ls Rs LFE
    Частота : 48, 0 КГц
    Частота кадров : 93, 750 кадра/сек (512 SPF)
    Битовая глубина : 24 бит
    Метод сжатия : С потерями
    Размер потока : 1, 10 Гбайт (10%)
    Заголовок : Original | DTS 5.1 @ 1510 kbps
    Язык : English
    Default : Нет
    Forced : Нет
    Текст #1
    Идентификатор : 4
    Формат : UTF-8
    Идентификатор кодека : S_TEXT/UTF8
    Идентификатор кодека/Информация : UTF-8 Plain Text
    Продолжительность : 10 м. 10 с.
    Битрейт : 0 бит/сек
    ElementCount : 2
    Размер потока : 50, 0 байт (0%)
    Заголовок : Forced
    Язык : Russian
    Default : Да
    Forced : Нет
    Текст #2
    Идентификатор : 5
    Формат : UTF-8
    Идентификатор кодека : S_TEXT/UTF8
    Идентификатор кодека/Информация : UTF-8 Plain Text
    Продолжительность : 1 ч. 32 м.
    Битрейт : 73 бит/сек
    ElementCount : 1054
    Размер потока : 49, 7 Кбайт (0%)
    Заголовок : Blu-Ray 4K EUR
    Язык : Russian
    Default : Нет
    Forced : Нет
    Текст #3
    Идентификатор : 6
    Формат : UTF-8
    Идентификатор кодека : S_TEXT/UTF8
    Идентификатор кодека/Информация : UTF-8 Plain Text
    Продолжительность : 1 ч. 32 м.
    Битрейт : 46 бит/сек
    ElementCount : 1100
    Размер потока : 31, 5 Кбайт (0%)
    Заголовок : Full
    Язык : English
    Default : Нет
    Forced : Нет
    Текст #4
    Идентификатор : 7
    Формат : UTF-8
    Идентификатор кодека : S_TEXT/UTF8
    Идентификатор кодека/Информация : UTF-8 Plain Text
    Продолжительность : 1 ч. 32 м.
    Битрейт : 59 бит/сек
    ElementCount : 1542
    Размер потока : 40, 2 Кбайт (0%)
    Заголовок : SDH
    Язык : English
    Default : Нет
    Forced : Нет
    Текст #5
    Идентификатор : 8
    Формат : UTF-8
    Идентификатор кодека : S_TEXT/UTF8
    Идентификатор кодека/Информация : UTF-8 Plain Text
    Продолжительность : 1 ч. 43 м.
    Битрейт : 99 бит/сек
    ElementCount : 1791
    Размер потока : 75, 4 Кбайт (0%)
    Заголовок : SDH-Colored
    Язык : English
    Default : Нет
    Forced : Нет
    Меню
    00: 00: 00.000 : en: 00: 00: 00.000
    00: 05: 13.521 : en: 00: 05: 13.521
    00: 10: 26.832 : en: 00: 10: 26.832
    00: 14: 52.224 : en: 00: 14: 52.224
    00: 20: 33.065 : en: 00: 20: 33.065
    00: 24: 38.683 : en: 00: 24: 38.683
    00: 28: 40.884 : en: 00: 28: 40.884
    00: 31: 10.116 : en: 00: 31: 10.116
    00: 37: 35.126 : en: 00: 37: 35.126
    00: 44: 38.550 : en: 00: 44: 38.550
    00: 47: 53.579 : en: 00: 47: 53.579
    00: 53: 11.021 : en: 00: 53: 11.021
    00: 57: 36.286 : en: 00: 57: 36.286
    01: 01: 25.056 : en: 01: 01: 25.056
    01: 08: 55.921 : en: 01: 08: 55.921
    01: 14: 17.703 : en: 01: 14: 17.703
    01: 19: 31.140 : en: 01: 19: 31.140
    01: 23: 23.287 : en: 01: 23: 23.287
    01: 28: 24.716 : en: 01: 28: 24.716
    01: 33: 53.377 : en: 01: 33: 53.377

    Скриншоты для ознакомления



    Все одноименные релизы в Клубе Все одноименные релизы в Клубе
    Время раздачи: c 5 до 19 (до появления первых 3-5 скачавших)

    Скриншоты для ознакомления



    Год выпуска: 2010, 2014, 2019
    Производство: США/DreamWorks Animation
    Жанр: мультфильм, фэнтези, комедия, приключения, семейный
    Режиссер: Дин ДеБлуа, Крис Сандерс

    Описание

    Вы узнаете историю подростка Иккинга, которому не слишком близки традиции его героического племени, много лет ведущего войну с драконами. Мир Иккинга переворачивается с ног на голову, когда он неожиданно встречает дракона Беззубика, который поможет ему и другим викингам увидеть привычный мир с совершенно другой стороны…
    Продолжительность: 01: 37: 51/01: 41: 55/01: 44: 06
    Качество видео: BDRip 1080p
    Перевод: Дублированный
    Субтитры: русские, английские


    Онлайн видео Как приручить дракона


    Как приручить дракона / How to Train Your Dragon (2010, 2014, 2019) BDRip [H.264 / 1080p] [Трилогия] торрент скачать бесплатно
    Рейтинг →
     (голосов: 1, оценка 4/5, голосовать можно 1 раз )

    Другие торренты по теме:

  • Как приручить дракона 2 / How to Train Your Dragon 2 (2014) BDRip [1080p]
  • Как приручить дракона 2 / How to Train Your Dragon 2 (2014) Blu-ray 3D [1080p]
  • Как приручить дракона 2 / How to Train Your Dragon 2 (2014) BDRemux 3D [1080p] [3D / 2D] скачать через торрент бесплатно
  • Как приручить дракона 2 / How to Train Your Dragon 2 (2014) BDRip [1080p] 3D [Вертикальная анаморфная стереопара] скачать через торрент бесплатно
  • Как приручить дракона 2 / How to Train Your Dragon 2 (2014) BDRip [720p] скачать через торрент бесплатно
  • Как приручить дракона 2 / How to Train Your Dragon 2 (2014) Blu-ray [1080p] скачать через торрент бесплатно
  • Как приручить дракона 2 / How to Train Your Dragon 2 (2014) BDRemux [1080p]
  • Как приручить дракона 2 / How to Train Your Dragon 2 (2014) BDRip [H.264]


    • Комментарии (0):

      Информация

      Информация

        Посетители, находящиеся в группе Гости, не могут оставлять комментарии в данной новости.

        ↓ Меню




        Популярное

        Фиксики против Кработов (2019) WEB-DLRip

        (скачиваний: 134)
        Рик и Морти / Rick and Morty (2015) WEB-DL [H.264 / 1080p] (Сезон 2, серии 1-10 из 10) Сыендук [EN / RU Sub] скачать через торрент бесплатно

        (скачиваний: 109)
        М.Ю. Демидова | ЕГЭ-2020. Физика. 30 типовых вариантов (2020) [PDF]

        (скачиваний: 80)
        Малышарики (2015-2019) WEB-DL [H.264 / 1080p-LQ] (серии 1-154 из 208) [Обновляемая]

        (скачиваний: 68)
        Рик и Морти / Rick and Morty (2013) BDRip [H.264 / 720p-LQ] (сезон 1, серии 1-11 из 11) Сыендук

        (скачиваний: 65)
        Рик и Морти / Rick and Morty (2013) BDRip [H.264 / 1080p] (Сезон 1, серии 1-11 из 11) Сыендук [EN Sub] скачать через торрент бесплатно

        (скачиваний: 46)
        Фиксики против Кработов (2019) WEB-DL [H.264 / 1080p-LQ]

        (скачиваний: 32)
        Свинка Пеппа / Peppa Pig (2004-2012) SATRip (1-4 сезоны: 208 серий из 209) скачать через торрент бесплатно

        (скачиваний: 28)
        Рик и Морти / Rick and Morty (2017) WEBRip [H.264 / 720p-LQ] (Сезон 3, серии 1 из ) Сыендук

        (скачиваний: 26)
        Жила-была царевна (2015-2019) WEB-DLRip [H.264 / 720p-LQ] (сезон 1, серии 1-18 из 26) [Обновляемая]

        (скачиваний: 21)