Подписывайся на наш канал в Telegram https://t.me/torrentok и получи доступ к торрентам без ограничений!
.
Авторизация | Регистрация
bitok.xyz
Торрент скачать бесплатно Мультфильмы торрент скачать Москва-Кассиопея (1973) DVDRemux [R.U.S.C.I.C.O.] [16x9] торрент скачать бесплатно


    Москва-Кассиопея (1973) DVDRemux [R.U.S.C.I.C.O.] [16x9] торрент скачать бесплатно

    Дата: 13-02-2020, 05:00 | .torrent скачали: 0

    Москва-Кассиопея (1973) DVDRemux [R.U.S.C.I.C.O.] [16x9]Производство: СССР
    Жанр: фантастика; приключения
    Режиссер: Ричард Викторов

    Актеры
    Иннокентий Смоктуновский, Василий Меркурьев, Лев Дуров, Юрий Медведев, Петр Меркурьев, Миша Ершов, Саша Григорьев, Владимир Савин, Владимир Басов, Ольга Битюкова, Надя Овчарова, Ира Попова
    Описание : Из глубин Вселенной до Земли долетает радиосигнал разумных существ с планеты из системы звезды Шедар (Альфа созвездия Кассиопеи). Проект, предложенный юным изобретателем Витей Середой, должен позволить земному звездолёту достичь планеты — но полёт продлится несколько десятилетий, поэтому экипаж космического корабля Заря набирают из школьников.
    Всё тщательно продумано, однако тайком пробравшийся на звездолёт хулиган и выдумщик Федя Лобанов помимо своей воли устраивает так, что корабль оказывается у цели значительно раньше намеченного срока.

    Возраст: 6+ (зрителям, достигшим 6 лет)
    Продолжительность: 01: 19: 44
    Качество видео: DVDRemux
    Видео: MPEG-2, 720x576@1024x576, ~6000 Kbps
    Аудио #1: AC3, 6 ch, 448 Kbps
    Аудио #2: AC3, 1 ch, 112 Kbps
    Общее
    Уникальный идентификатор : 251187065978894685403350179689894416300 (0xBCF8DE83F77BE24E950E19D69A428FAC)
    Полное имя : Москва-Кассиопея.R.U.S.C.I.C.O.1973.DVDRemux.16x9.almikl.nnmclub.mkv
    Формат : Matroska
    Версия формата : Version 4
    Размер файла : 3, 66 Гбайт
    Продолжительность : 1 ч. 19 м.
    Режим общего битрейта : Переменный
    Общий поток : 6562 Кбит/сек
    Дата кодирования : UTC 2020-02-10 09: 52: 15
    Программа кодирования : mkvmerge v43.0.0 (\'The Quartermaster\') 64-bit
    Библиотека кодирования : libebml v1.3.10 + libmatroska v1.5.2
    Видео
    Идентификатор : 1
    Формат : MPEG Video
    Версия формата : Version 2
    Профиль формата : Main@Main
    Настройки формата : CustomMatrix/BVOP
    Параметр BVOP формата : Да
    Параметр матрицы формата : Выборочная
    Параметр GOP формата : Variable
    Структура изображения : Frame
    Идентификатор кодека : V_MPEG2
    Идентификатор кодека/Информация : MPEG 1 or 2 Video
    Продолжительность : 1 ч. 19 м.
    Вид битрейта : Переменный
    Битрейт : 6000 Кбит/сек
    Ширина : 720 пикселей
    Высота : 576 пикселей
    Соотношение сторон : 16: 9
    Режим частоты кадров : Постоянный
    Частота кадров : 25, 000 кадров/сек
    Стандарт вещания : PAL
    Цветовое пространство : YUV
    Субдискретизация насыщенности : 4: 2: 0
    Битовая глубина : 8 бит
    Тип развёртки : Чересстрочная
    Порядок развёртки : Верхнее поле первое
    Метод сжатия : С потерями
    Бит/(Пиксели*Кадры) : 0.579
    Временной код первого кадра : 00: 59: 04: 00
    Оригинал временного кода : Group of pictures t_head
    Размер потока : 3, 35 Гбайт (91%)
    Язык : English
    Default : Нет
    Forced : Нет
    Аудио #1
    Идентификатор : 2
    Формат : AC-3
    Формат/Информация : Audio Coding 3
    Коммерческое название : Dolby Digital
    Идентификатор кодека : A_AC3
    Продолжительность : 1 ч. 19 м.
    Вид битрейта : Постоянный
    Битрейт : 448 Кбит/сек
    Каналы : 6 каналов
    ChannelLayout : L R C LFE Ls Rs
    Частота : 48, 0 КГц
    Частота кадров : 31, 250 кадров/сек (1536 SPF)
    Метод сжатия : С потерями
    Задержка видео : 520 мс.
    Размер потока : 256 Мбайт (7%)
    Заголовок : Surround 5.1
    Язык : Russian
    ServiceKind/String : Complete Main
    Default : Да
    Forced : Нет
    Аудио #2
    Идентификатор : 3
    Формат : AC-3
    Формат/Информация : Audio Coding 3
    Коммерческое название : Dolby Digital
    Идентификатор кодека : A_AC3
    Продолжительность : 1 ч. 19 м.
    Вид битрейта : Постоянный
    Битрейт : 112 Кбит/сек
    Каналы : 1 канал
    ChannelLayout : C
    Частота : 48, 0 КГц
    Частота кадров : 31, 250 кадров/сек (1536 SPF)
    Метод сжатия : С потерями
    Задержка видео : 520 мс.
    Размер потока : 64, 0 Мбайт (2%)
    Заголовок : Mono
    Язык : Russian
    ServiceKind/String : Complete Main
    Default : Нет
    Forced : Нет
    Меню
    00: 00: 00.040 : en: Chapter 01
    00: 03: 47.280 : en: Chapter 02
    00: 12: 13.200 : en: Chapter 03
    00: 19: 07.960 : en: Chapter 04
    00: 27: 18.120 : en: Chapter 05
    00: 31: 38.520 : en: Chapter 06
    00: 39: 57.880 : en: Chapter 07
    00: 45: 12.360 : en: Chapter 08
    00: 49: 09.280 : en: Chapter 09
    00: 54: 11.240 : en: Chapter 10
    00: 58: 39.000 : en: Chapter 11
    01: 07: 28.560 : en: Chapter 12

    Скриншоты для ознакомления



    Все одноименные релизы в Клубе
    Время раздачи: 24/7 (до появления первых 3-5 скачавших)

    Онлайн видео Москва


    Москва-Кассиопея (1973) DVDRemux [R.U.S.C.I.C.O.] [16x9] торрент скачать бесплатно
    Рейтинг →
     (голосов: 1, оценка 4/5, голосовать можно 1 раз )

    Другие торренты по теме:

  • Москва-Кассиопея (1973) DVDRemux
  • Москва-Кассиопея (1973) DVDRemux [R.U.S.C.I.C.O.]


    • Комментарии (0):

      Информация

      Информация

        Посетители, находящиеся в группе Гости, не могут оставлять комментарии в данной новости.

        ↓ Меню




        Популярное

        Фиксики против Кработов (2019) WEB-DLRip

        (скачиваний: 134)
        Рик и Морти / Rick and Morty (2015) WEB-DL [H.264 / 1080p] (Сезон 2, серии 1-10 из 10) Сыендук [EN / RU Sub] скачать через торрент бесплатно

        (скачиваний: 109)
        М.Ю. Демидова | ЕГЭ-2020. Физика. 30 типовых вариантов (2020) [PDF]

        (скачиваний: 80)
        Малышарики (2015-2019) WEB-DL [H.264 / 1080p-LQ] (серии 1-154 из 208) [Обновляемая]

        (скачиваний: 68)
        Рик и Морти / Rick and Morty (2013) BDRip [H.264 / 720p-LQ] (сезон 1, серии 1-11 из 11) Сыендук

        (скачиваний: 65)
        Рик и Морти / Rick and Morty (2013) BDRip [H.264 / 1080p] (Сезон 1, серии 1-11 из 11) Сыендук [EN Sub] скачать через торрент бесплатно

        (скачиваний: 46)
        Фиксики против Кработов (2019) WEB-DL [H.264 / 1080p-LQ]

        (скачиваний: 32)
        Свинка Пеппа / Peppa Pig (2004-2012) SATRip (1-4 сезоны: 208 серий из 209) скачать через торрент бесплатно

        (скачиваний: 28)
        Рик и Морти / Rick and Morty (2017) WEBRip [H.264 / 720p-LQ] (Сезон 3, серии 1 из ) Сыендук

        (скачиваний: 26)
        Жила-была царевна (2015-2019) WEB-DLRip [H.264 / 720p-LQ] (сезон 1, серии 1-18 из 26) [Обновляемая]

        (скачиваний: 21)