ВАЖНО! Сайт скоро заблокируют! Подписывайся на наш канал в Telegram https://t.me/torrentok и получи доступ к торрентам без ограничений!
.
Авторизация | Регистрация
bitok.xyz
Торрент скачать бесплатно Мультфильмы торрент скачать Холодное сердце 2 / Frozen II (2019) BDRip [H.264 / 1080p] торрент скачать бесплатно


    Холодное сердце 2 / Frozen II (2019) BDRip [H.264 / 1080p] торрент скачать бесплатно

    Дата: 14-02-2020, 05:00 | .torrent скачали: 0

    Холодное сердце 2 / Frozen II (2019) BDRip [H.264 / 1080p]Производство: США/Walt Disney Animation Studios, Walt Disney Pictures
    Жанр: мультфильм, мюзикл, фэнтези, комедия, приключения, семейный
    Режиссер: Крис Бак, Дженнифер Ли

    Описание

    Анна, Эльза, Кристоф, его верный олень Свен и никогда не унывающий снеговик Олаф должны будут покинуть уютное королевство Эренделл и отправиться ещё дальше на север, в путешествие, которое приведет их к истокам древних легенд и поможет раскрыть тайны, касающиеся прошлого их родной страны.

    Возраст: 6+ (зрителям, достигшим 6 лет)
    Рейтинг MPAA: PG (рекомендуется присутствие родителей)
    Дата мировой премьеры: 7 ноября 2019
    Дата российской премьеры: 28 ноября 2019
    Релиз от: selezen
    Продолжительность: 01: 43: 13
    Качество видео: BDRip
    Перевод: Дублированный | iTunes
    Субтитры: Русские (Full, SDH), английские
    Видео: AVC/H.264, 1920x804, 8283 Kbps, 23.976 fps
    Аудио 1: AC3, 6 ch, 384 Kbps | Русский
    Аудио 2: AC3, 6 ch, 640 Kbps | Английский
    General
    Complete name : Frozen.II.2019.BDRip.1080p.seleZen.mkv
    Format : Matroska
    Format version : Version 4
    File size : 6.71 GiB
    Duration : 1 h 43 min
    Overall bit rate : 9 310 kb/s
    Movie name : Frozen.II.2019 from селезень
    Encoded date : UTC 2020-02-13 19: 26: 25
    Writing application : mkvmerge v40.0.0 (\'Old Town Road + Pony\') 64-bit
    Writing library : libebml v1.3.9 + libmatroska v1.5.2
    Video
    ID : 1
    Format : AVC
    Format/Info : Advanced Video Codec
    Format profile : High@L4.1
    Format settings : CABAC/5 Ref Frames
    Format settings, CABAC : Yes
    Format settings, Reference frames : 5 frames
    Codec ID : V_MPEG4/ISO/AVC
    Duration : 1 h 43 min
    Bit rate : 8 283 kb/s
    Width : 1 920 pixels
    Height : 804 pixels
    Display aspect ratio : 2.40: 1
    Frame rate mode : Constant
    Frame rate : 23.976 (24000/1001) FPS
    Color space : YUV
    Chroma subsampling : 4: 2: 0
    Bit depth : 8 bits
    Scan type : Progressive
    Bits/(Pixel*Frame) : 0.224
    Stream size : 5.97 GiB (89%)
    Writing library : x264 core 158 r2984+49 6932f4a t_mod_New 0-bit@all X86_64
    Encoding settings : cabac=1/ref=5/deblock=1: -3: -3/analyse=0x3: 0x133/me=umh/subme=10/psy=1/fade_compensate=0.00/psy_rd=1.00: 0.00/mixed_ref=1/me_range=32/chroma_me=1/trellis=2/8x8dct=1/cqm=0/deadzone=21, 11/fast_pskip=0/chroma_qp_offset=-2/threads=16/lookahead_threads=4/sliced_threads=0/nr=0/decimate=0/interlaced=0/bluray_compat=0/constrained_intra=0/fgo=0/bframes=12/b_pyramid=2/b_adapt=2/b_bias=0/direct=3/weightb=1/open_gop=0/weightp=2/keyint=480/keyint_min=24/scenecut=40/intra_refresh=0/rc_lookahead=80/rc=crf/mbtree=0/crf=16.0000/qcomp=0.60/qpmin=0: 0: 0/qpmax=69: 69: 69/qpstep=4/vbv_maxrate=62500/vbv_bufsize=78125/crf_max=0.0/nal_hrd=none/filler=0/ip_ratio=1.30/pb_ratio=1.20/aq=3: 0.80/aq-sensitivity=10.00/aq-factor=1.00: 1.00: 1.00/aq2=0/aq3=0
    Language : English
    Default : Yes
    Forced : No
    Color range : Limited
    Color primaries : BT.709
    Transfer characteristics : BT.709
    Matrix coefficients : BT.709
    Audio #1
    ID : 2
    Format : AC-3
    Format/Info : Audio Coding 3
    Commercial name : Dolby Digital
    Codec ID : A_AC3
    Duration : 1 h 43 min
    Bit rate mode : Constant
    Bit rate : 384 kb/s
    Channel(s) : 6 channels
    Channel layout : L R C LFE Ls Rs
    Sampling rate : 48.0 kHz
    Frame rate : 31.250 FPS (1536 SPF)
    Compression mode : Lossy
    Stream size : 283 MiB (4%)
    Title : iTunes
    Language : Russian
    Service kind : Complete Main
    Default : Yes
    Forced : Yes
    Audio #2
    ID : 3
    Format : AC-3
    Format/Info : Audio Coding 3
    Commercial name : Dolby Digital
    Codec ID : A_AC3
    Duration : 1 h 43 min
    Bit rate mode : Constant
    Bit rate : 640 kb/s
    Channel(s) : 6 channels
    Channel layout : L R C LFE Ls Rs
    Sampling rate : 48.0 kHz
    Frame rate : 31.250 FPS (1536 SPF)
    Compression mode : Lossy
    Stream size : 473 MiB (7%)
    Title : Original
    Language : English
    Service kind : Complete Main
    Default : No
    Forced : No
    Text #1
    ID : 4
    Format : UTF-8
    Codec ID : S_TEXT/UTF8
    Codec ID/Info : UTF-8 Plain Text
    Duration : 1 h 41 min
    Bit rate : 72 b/s
    Count of elements : 1312
    Stream size : 53.9 KiB (0%)
    Title : Full
    Language : Russian
    Default : No
    Forced : No
    Text #2
    ID : 5
    Format : UTF-8
    Codec ID : S_TEXT/UTF8
    Codec ID/Info : UTF-8 Plain Text
    Duration : 1 h 42 min
    Bit rate : 95 b/s
    Count of elements : 1810
    Stream size : 71.6 KiB (0%)
    Title : SDH
    Language : Russian
    Default : No
    Forced : No
    Text #3
    ID : 6
    Format : UTF-8
    Codec ID : S_TEXT/UTF8
    Codec ID/Info : UTF-8 Plain Text
    Duration : 1 h 41 min
    Bit rate : 56 b/s
    Count of elements : 1560
    Stream size : 42.0 KiB (0%)
    Title : Full
    Language : English
    Default : No
    Forced : No
    Text #4
    ID : 7
    Format : UTF-8
    Codec ID : S_TEXT/UTF8
    Codec ID/Info : UTF-8 Plain Text
    Duration : 1 h 42 min
    Bit rate : 68 b/s
    Count of elements : 1930
    Stream size : 51.2 KiB (0%)
    Title : SDH
    Language : English
    Default : No
    Forced : No
    Menu
    00: 00: 00.000 : en: Chapter 1
    00: 05: 42.592 : en: Chapter 2
    00: 08: 27.716 : en: Chapter 3
    00: 15: 01.400 : en: Chapter 4
    00: 16: 29.655 : en: Chapter 5
    00: 21: 25.117 : en: Chapter 6
    00: 25: 45.252 : en: Chapter 7
    00: 29: 08.914 : en: Chapter 8
    00: 33: 45.023 : en: Chapter 9
    00: 40: 27.216 : en: Chapter 10
    00: 44: 37.925 : en: Chapter 11
    00: 47: 42.318 : en: Chapter 12
    00: 53: 04.515 : en: Chapter 13
    00: 55: 27.241 : en: Chapter 14
    01: 02: 36.711 : en: Chapter 15
    01: 09: 57.527 : en: Chapter 16
    01: 13: 48.382 : en: Chapter 17
    01: 19: 26.637 : en: Chapter 18
    01: 24: 28.146 : en: Chapter 19
    01: 31: 17.263 : en: Chapter 20


    Онлайн видео Холодное сердце 2


    Холодное сердце 2 / Frozen II (2019) BDRip [H.264 / 1080p] торрент скачать бесплатно
    Рейтинг →
     (голосов: 1, оценка 3/5, голосовать можно 1 раз )

    Другие торренты по теме:

  • Frozen. Free Fall / Холодное Сердце. Звездопад 2.6 [Ru] скачать через торрент бесплатно
  • Холодное сердце (2016) HDTV [H.264 / 1080i] (серии 1-2 из 2)
  • Холодное сердце (2016) HDTVRip [H.264] (серии 1-2 из 2)
  • Холодное сердце / Frozen (2013) BDRip [H.264 / 1080p] [handmade 16:9]
  • Дмитрий Браславский | Мерцание эльфийского портала, Холодное сердце Далрока [2 книги] (2012-2015) [DOC, PDF]
  • Холодное сердце / Das kalte Herz (2016) HDRip [AD]
  • Холодное сердце / Das Kalte Herz (1950) HDRip [H.264] [AVO]
  • Yuletide Legends 2: Frozen Hearts / Святочные истории 2: Холодное сердце (2017) [Ru] (1.0) Unofficial [Collectors Edition / Коллекционное издание]


    • Комментарии (0):

      Информация

      Информация

        Посетители, находящиеся в группе Гости, не могут оставлять комментарии в данной новости.

        ↓ Меню




        Популярное

        Роботы-пожарные / Fire Robo (2016) WEB-DLRip [H.264 / 720p-LQ] (сезон 1, серии 1-26 из 26) [Обновляемая]

        (скачиваний: 6)
        Лея Уотерс | Переключение на силу. Как научиться видеть в детях сильные стороны, чтобы помочь им расцвести (2019) [EPUB]

        (скачиваний: 5)
        Жила-была царевна (2015-2019) WEB-DLRip [H.264 / 720p-LQ] (сезон 1, серии 1-18 из 26) [Обновляемая]

        (скачиваний: 5)
        Сергей Матвеев | Полный курс английского языка для лентяев (2016) [PDF]

        (скачиваний: 5)
        Алексей Марков | Хулиганская экономика. Финансовые рынки для хулиганов и их родителей (2019) [EPUB]

        (скачиваний: 4)
        Металионы / Metalions (2018-2019) WEB-DLRip [H.264 / 720p-LQ] (сезон 1, серии 1-52 из 52) [Обновляемая]

        (скачиваний: 4)
        Александр Нилл | Воспитание свободой. Школа Саммерхилл (2020) [EPUB]

        (скачиваний: 4)
        Серия книг | Образовательная манга (2010 - 2015) [PDF]

        (скачиваний: 4)
        Мариэтта Чудакова | Рассказы про Россию. 1861—1922 (2020) [EPUB]

        (скачиваний: 3)
        Gekijouban KanColle | Kantai Collection Movie | Fleet Girls Collection: Movie Sequence| Коллекционная флотилия на большом экране [2016, Movie] BDrip 720p 10bit raw

        (скачиваний: 3)