Подписывайся на наш канал в Telegram https://t.me/torrentok и получи доступ к торрентам без ограничений!
.
Авторизация | Регистрация
bitok.xyz
Торрент скачать бесплатно Мультфильмы торрент скачать Холодное сердце 2 / Frozen II (2019) BDRip [H.265 / 2160p] [4K,HDR,10-bit] (Online) торрент скачать бесплатно


    Холодное сердце 2 / Frozen II (2019) BDRip [H.265 / 2160p] [4K,HDR,10-bit] (Online) торрент скачать бесплатно

    Дата: 14-02-2020, 05:00 | .torrent скачали: 0

    Холодное сердце 2 / Frozen II (2019) BDRip [H.265 / 2160p] [4K,HDR,10-bit] (Online)Производство: США/Walt Disney Animation Studios, Walt Disney Pictures
    Жанр: мультфильм, мюзикл, фэнтези, комедия, приключения, семейный
    Режиссер: Крис Бак, Дженнифер Ли

    Описание

    Анна, Эльза, Кристоф, его верный олень Свен и никогда не унывающий снеговик Олаф должны будут покинуть уютное королевство Эренделл и отправиться ещё дальше на север, в путешествие, которое приведет их к истокам древних легенд и поможет раскрыть тайны, касающиеся прошлого их родной страны.

    Возраст: 6+ (зрителям, достигшим 6 лет)
    Рейтинг MPAA: PG (рекомендуется присутствие родителей)
    Дата мировой премьеры: 7 ноября 2019
    Дата российской премьеры: 28 ноября 2019
    Релиз от: Astral Projection
    Продолжительность: 01: 43: 13
    Качество видео: BDRip
    Перевод: Дублированный (Онлайн кинотеатр)
    Субтитры: Отсутствуют
    Видео: HEVC/H.265, 3840x1608, ~5998 Kbps
    Аудио#1: AC3, 2 ch, 192 Kbps | Русский
    Аудио#2: DTS-HD MA, 8 ch, 8449 Kbps | Английский
    ormat : Matroska
    Format version : Version 4
    File size : 10.6 GiB
    Duration : 1 h 43 min
    Overall bit rate mode : Variable
    Overall bit rate : 14.7 Mb/s
    Encoded date : UTC 2020-02-13 19: 20: 53
    Writing application : mkvmerge v43.0.0 (\'The Quartermaster\') 64-bit
    Writing library : libebml v1.3.10 + libmatroska v1.5.2
    Video
    ID : 1
    Format : HEVC
    Format/Info : High Efficiency Video Coding
    Format profile : Main10@L5.1@High
    HDR format : SMPTE ST 2086, HDR10 compatible
    Codec ID : V_MPEGH/ISO/HEVC
    Duration : 1 h 43 min
    Bit rate : 5 998 kb/s
    Width : 3 840 pixels
    Height : 1 608 pixels
    Display aspect ratio : 2.40: 1
    Frame rate mode : Constant
    Frame rate : 23.976 (24000/1001) FPS
    Color space : YUV
    Chroma subsampling : 4: 2: 0 (Type 2)
    Bit depth : 10 bits
    Bits/(Pixel*Frame) : 0.041
    Stream size : 4.32 GiB (41%)
    Writing library : x265 3.2+23-52135ffd9bcd: WindowsGCC 9.2.164 bit 10bit
    Encoding settings : cpuid=1176575/frame-threads=5/numa-pools=36/wpp/no-pmode/no-pme/no-psnr/no-ssim/log-level=2/input-csp=1/input-res=3840x1608/interlace=0/total-frames=148499/level-idc=51/high-tier=1/uhd-bd=0/ref=4/no-allow-non-conformance/repeat-t_heads/annexb/aud/hrd/info/hash=0/no-temporal-layers/no-open-gop/min-keyint=1/keyint=24/gop-lookahead=0/bframes=4/b-adapt=2/b-pyramid/bframe-bias=0/rc-lookahead=25/lookahead-slices=4/scenecut=40/hist-scenecut=0/radl=0/no-splice/no-intra-refresh/ctu=64/min-cu-size=8/rect/no-amp/max-tu-size=32/tu-inter-depth=1/tu-intra-depth=1/limit-tu=0/rdoq-level=2/dynamic-rd=0.00/no-ssim-rd/signhide/no-tskip/nr-intra=0/nr-inter=0/no-constrained-intra/no-strong-intra-smoothing/max-merge=3/limit-refs=3/limit-modes/me=3/subme=3/merange=57/temporal-mvp/no-frame-dup/no-hme/weightp/no-weightb/no-analyze-src-pics/deblock=-3: -3/no-sao/no-sao-non-deblock/rd=4/selective-sao=0/no-early-skip/rskip/no-fast-intra/no-tskip-fast/no-cu-lossless/no-b-intra/no-splitrd-skip/rdpenalty=0/psy-rd=2.00/psy-rdoq=1.00/no-rd-refine/no-lossless/cbqpoffs=0/crqpoffs=0/rc=crf/crf=17.0/qcomp=0.60/qpstep=4/stats-write=0/stats-read=0/vbv-maxrate=160000/vbv-bufsize=160000/vbv-init=0.9/crf-max=0.0/crf-min=0.0/ipratio=1.40/pbratio=1.30/aq-mode=1/aq-strength=1.00/cutree/zone-count=0/no-strict-cbr/qg-size=32/no-rc-grain/qpmax=69/qpmin=0/no-const-vbv/sar=1/overscan=0/videoformat=5/range=0/colorprim=9/transfer=16/colormatrix=9/chromaloc=1/chromaloc-top=2/chromaloc-bottom=2/display-window=0/master-display=G(13250, 34500)B(7500, 3000)R(34000, 16000)WP(15635, 16450)L(10000000, 1)/cll=0, 0/min-luma=0/max-luma=1023/log2-max-poc-lsb=8/vui-timing-info/vui-hrd-info/slices=1/no-opt-qp-pps/no-opt-ref-list-length-pps/no-multi-pass-opt-rps/scenecut-bias=0.05/hist-threshold=0.01/no-opt-cu-delta-qp/no-aq-motion/hdr/hdr-opt/no-dhdr10-opt/no-idr-recovery-sei/analysis-reuse-level=5/scale-factor=0/refine-intra=0/refine-inter=0/refine-mv=1/refine-ctu-distortion=0/no-limit-sao/ctu-info=0/no-lowpass-dct/refine-analysis-type=0/copy-pic=1/max-ausize-factor=1.0/no-dynamic-refine/no-single-sei/no-hevc-aq/no-svt/no-field/qp-adaptation-range=1.00/no-scenecut-aware-qp
    Default : Yes
    Forced : No
    Color range : Limited
    Color primaries : BT.2020
    Transfer characteristics : PQ
    Matrix coefficients : BT.2020 non-constant
    Mastering display color primaries : Display P3
    Mastering display luminance : min: 0.0001 cd/m2, max: 1000 cd/m2
    Audio #1
    ID : 2
    Format : AC-3
    Format/Info : Audio Coding 3
    Commercial name : Dolby Digital
    Codec ID : A_AC3
    Duration : 1 h 43 min
    Bit rate mode : Constant
    Bit rate : 192 kb/s
    Channel(s) : 2 channels
    Channel layout : L R
    Sampling rate : 48.0 kHz
    Frame rate : 31.250 FPS (1536 SPF)
    Compression mode : Lossy
    Delay relative to video : 1 s 0 ms
    Stream size : 142 MiB (1%)
    Language : Russian
    Service kind : Complete Main
    Default : Yes
    Forced : No
    Audio #2
    ID : 3
    Format : MLP FBA 16-ch
    Format/Info : Meridian Lossless Packing FBA with 16-channel presentation
    Commercial name : Dolby TrueHD with Dolby Atmos
    Codec ID : A_TRUEHD
    Duration : 1 h 43 min
    Bit rate mode : Variable
    Bit rate : 8 449 kb/s
    Maximum bit rate : 10.6 Mb/s
    Channel(s) : 8 channels
    Channel layout : L R C LFE Ls Rs Lb Rb
    Sampling rate : 48.0 kHz
    Frame rate : 1 200.000 FPS (40 SPF)
    Compression mode : Lossless
    Stream size : 6.09 GiB (57%)
    Language : English
    Default : No
    Forced : No
    Number of dynamic objects : 13
    Bed channel count : 1 channel
    Bed channel configuration : LFE

    Скриншоты для ознакомления



    Все одноименные релизы в Клубе
    Время раздачи: с 10: 00 до 2: 30 (до появления первых 3-5 скачавших)

    Онлайн видео Холодное сердце 2


    Холодное сердце 2 / Frozen II (2019) BDRip [H.265 / 2160p] [4K,HDR,10-bit] (Online) торрент скачать бесплатно
    Рейтинг →
     (голосов: 1, оценка 3/5, голосовать можно 1 раз )

    Другие торренты по теме:

  • Frozen. Free Fall / Холодное Сердце. Звездопад 2.6 [Ru] скачать через торрент бесплатно
  • Холодное сердце (2016) HDTV [H.264 / 1080i] (серии 1-2 из 2)
  • Холодное сердце (2016) HDTVRip [H.264] (серии 1-2 из 2)
  • Холодное сердце / Frozen (2013) BDRip [H.264 / 1080p] [handmade 16:9]
  • Дмитрий Браславский | Мерцание эльфийского портала, Холодное сердце Далрока [2 книги] (2012-2015) [DOC, PDF]
  • Холодное сердце / Das kalte Herz (2016) HDRip [AD]
  • Холодное сердце / Das Kalte Herz (1950) HDRip [H.264] [AVO]
  • Yuletide Legends 2: Frozen Hearts / Святочные истории 2: Холодное сердце (2017) [Ru] (1.0) Unofficial [Collectors Edition / Коллекционное издание]


    • Комментарии (0):

      Информация

      Информация

        Посетители, находящиеся в группе Гости, не могут оставлять комментарии в данной новости.

        ↓ Меню




        Популярное

        Фиксики против Кработов (2019) WEB-DLRip

        (скачиваний: 134)
        Рик и Морти / Rick and Morty (2015) WEB-DL [H.264 / 1080p] (Сезон 2, серии 1-10 из 10) Сыендук [EN / RU Sub] скачать через торрент бесплатно

        (скачиваний: 109)
        М.Ю. Демидова | ЕГЭ-2020. Физика. 30 типовых вариантов (2020) [PDF]

        (скачиваний: 80)
        Малышарики (2015-2019) WEB-DL [H.264 / 1080p-LQ] (серии 1-154 из 208) [Обновляемая]

        (скачиваний: 68)
        Рик и Морти / Rick and Morty (2013) BDRip [H.264 / 720p-LQ] (сезон 1, серии 1-11 из 11) Сыендук

        (скачиваний: 65)
        Рик и Морти / Rick and Morty (2013) BDRip [H.264 / 1080p] (Сезон 1, серии 1-11 из 11) Сыендук [EN Sub] скачать через торрент бесплатно

        (скачиваний: 46)
        Фиксики против Кработов (2019) WEB-DL [H.264 / 1080p-LQ]

        (скачиваний: 32)
        Свинка Пеппа / Peppa Pig (2004-2012) SATRip (1-4 сезоны: 208 серий из 209) скачать через торрент бесплатно

        (скачиваний: 28)
        Рик и Морти / Rick and Morty (2017) WEBRip [H.264 / 720p-LQ] (Сезон 3, серии 1 из ) Сыендук

        (скачиваний: 26)
        Жила-была царевна (2015-2019) WEB-DLRip [H.264 / 720p-LQ] (сезон 1, серии 1-18 из 26) [Обновляемая]

        (скачиваний: 21)