Подписывайся на наш канал в Telegram https://t.me/torrentok и получи доступ к торрентам без ограничений!
.
Авторизация | Регистрация
bitok.xyz
Торрент скачать бесплатно Мультфильмы торрент скачать Эверест / Abominable (2019) BDRip 3D [H.264 / 1080p] [Вертикальная анаморфная стереопара] торрент скачать бесплатно


    Эверест / Abominable (2019) BDRip 3D [H.264 / 1080p] [Вертикальная анаморфная стереопара] торрент скачать бесплатно

    Дата: 14-02-2020, 05:00 | .torrent скачали: 0

    Эверест / Abominable (2019) BDRip 3D [H.264 / 1080p] [Вертикальная анаморфная стереопара]Производство: Китай, США, DreamWorks Animation, Pearl Studio
    Жанр: Мультфильм, Фэнтези, Комедия, Приключения, Семейный
    Режиссер: Джилл Калтон, Тодд Вилдерман
    Продюсер: Сюзанн Бёрги, Пейлин Чоу, Дейв Полски
    Персонажи: Хлоя Беннет, Альберт Цай, Тензинг Норгай Трэйнор, Джозеф Иццо, Эдди Иззард, Сара Полсон, Цай Чинь, Мишель Вонг, Рич Дитль, Джеймс Хонг

    Описание

    Путешествие на самую высокую точку мира? Что может быть круче! Так решает Лу, когда случайно находит огромное, но очень милое чудовище посреди шумного мегаполиса. Пусть их преследуют ученые из сверхсекретной лаборатории, зато её новый друг умеет смешить и творить чудеса. Лу уверена, что поможет дружелюбному йети вернуться домой — на Эверест.

    Возраст: 6+ (зрителям, достигшим 6 лет)
    Рейтинг MPAA: PG (рекомендуется присутствие родителей)
    Дата мировой премьеры: 7 сентября 2019
    Дата российской премьеры: 3 октября 2019, UPI
    Релиз от: Ash61
    Продолжительность: 01: 37: 13
    Качество видео: BDRip 1080p
    Перевод: Дублированный (Лицензия)
    Субтитры: русские (Forced, Full), английские (Full, SDH)
    Видео: AVC/H.264, 1920x1080, 12.0 Mbps
    Аудио 1: АС3, 6 ch, 640 Kbps, Русский (DUB Blu-ray 3D EUR)
    Аудио 2: AC3, 6 ch, 448 Kbps, Английский
    Общее
    Уникальный идентификатор : 199995772287870513197422341069567387292 (0x9675C8DF7A68917698656E4A3E33669C)
    Полное имя : D: MULTAbominable.2019.3D.mkv
    Формат : Matroska
    Версия формата : Version 4
    Размер файла : 8, 88 Гбайт
    Продолжительность : 1 ч. 37 м.
    Общий поток : 13, 1 Мбит/сек
    Название фильма : Эверест/Abominable (2019) in 3D
    Дата кодирования : UTC 2020-02-13 06: 04: 27
    Программа кодирования : mkvmerge v8.2.0 (\'World of Adventure\') 64bit
    Библиотека кодирования : libebml v1.3.1 + libmatroska v1.4.2
    Видео
    Идентификатор : 1
    Формат : AVC
    Формат/Информация : Advanced Video Codec
    Профиль формата : High@L4.1
    Настройки формата : CABAC/4 Ref Frames
    Параметр CABAC формата : Да
    Параметр RefFrames формата : 4 кадра
    Идентификатор кодека : V_MPEG4/ISO/AVC
    Продолжительность : 1 ч. 37 м.
    Битрейт : 12, 0 Мбит/сек
    Ширина : 1920 пикселей
    Высота : 1080 пикселей
    Соотношение сторон : 16: 9
    Режим частоты кадров : Постоянный
    Частота кадров : 23, 976 (24000/1001) кадра/сек
    Цветовое пространство : YUV
    Субдискретизация насыщенности : 4: 2: 0
    Битовая глубина : 8 бит
    Тип развёртки : Прогрессивная
    Бит/(Пиксели*Кадры) : 0.241
    Размер потока : 8, 14 Гбайт (92%)
    Заголовок : BDRip by Ash61
    Библиотека кодирования : x264 core 146 r2538 121396c
    Настройки программы : cabac=1/ref=4/deblock=1: -3: -3/analyse=0x3: 0x113/me=umh/subme=10/psy=1/psy_rd=1.00: 0.00/mixed_ref=1/me_range=32/chroma_me=1/trellis=2/8x8dct=1/cqm=0/deadzone=21, 11/fast_pskip=0/chroma_qp_offset=-2/threads=12/lookahead_threads=2/sliced_threads=0/nr=0/decimate=0/interlaced=0/bluray_compat=0/constrained_intra=0/bframes=9/b_pyramid=2/b_adapt=2/b_bias=0/direct=3/weightb=1/open_gop=0/weightp=2/keyint=250/keyint_min=23/scenecut=40/intra_refresh=0/rc_lookahead=60/rc=2pass/mbtree=0/bitrate=12000/ratetol=1.0/qcomp=0.70/qpmin=0/qpmax=69/qpstep=4/cplxblur=20.0/qblur=0.5/vbv_maxrate=40000/vbv_bufsize=30000/nal_hrd=none/filler=0/frame-packing=4/ip_ratio=1.40/pb_ratio=1.30/aq=1: 0.70
    Язык : English
    Default : Да
    Forced : Нет
    Аудио #1
    Идентификатор : 2
    Формат : AC-3
    Формат/Информация : Audio Coding 3
    Коммерческое название : Dolby Digital
    Идентификатор кодека : A_AC3
    Продолжительность : 1 ч. 37 м.
    Вид битрейта : Постоянный
    Битрейт : 640 Кбит/сек
    Каналы : 6 каналов
    ChannelLayout : L R C LFE Ls Rs
    Частота : 48, 0 КГц
    Частота кадров : 31, 250 кадров/сек (1536 SPF)
    Метод сжатия : С потерями
    Размер потока : 445 Мбайт (5%)
    Заголовок : DUB Blu-ray 3D EUR
    Язык : Russian
    ServiceKind/String : Complete Main
    Default : Да
    Forced : Нет
    Аудио #2
    Идентификатор : 3
    Формат : AC-3
    Формат/Информация : Audio Coding 3
    Коммерческое название : Dolby Digital
    Идентификатор кодека : A_AC3
    Продолжительность : 1 ч. 37 м.
    Вид битрейта : Постоянный
    Битрейт : 448 Кбит/сек
    Каналы : 6 каналов
    ChannelLayout : L R C LFE Ls Rs
    Частота : 48, 0 КГц
    Частота кадров : 31, 250 кадров/сек (1536 SPF)
    Метод сжатия : С потерями
    Размер потока : 312 Мбайт (3%)
    Заголовок : Original (BD 3D US)
    Язык : English
    ServiceKind/String : Complete Main
    Default : Нет
    Forced : Нет
    Текст #1
    Идентификатор : 4
    Формат : UTF-8
    Идентификатор кодека : S_TEXT/UTF8
    Идентификатор кодека/Информация : UTF-8 Plain Text
    Продолжительность : 1 ч. 23 м.
    Битрейт : 0 бит/сек
    ElementCount : 9
    Размер потока : 356 байт (0%)
    Заголовок : Форсированные
    Язык : Russian
    Default : Да
    Forced : Нет
    Текст #2
    Идентификатор : 5
    Формат : UTF-8
    Идентификатор кодека : S_TEXT/UTF8
    Идентификатор кодека/Информация : UTF-8 Plain Text
    Продолжительность : 1 ч. 25 м.
    Битрейт : 67 бит/сек
    ElementCount : 997
    Размер потока : 42, 3 Кбайт (0%)
    Заголовок : Полные (sub.Trader)
    Язык : Russian
    Default : Нет
    Forced : Нет
    Текст #3
    Идентификатор : 6
    Формат : UTF-8
    Идентификатор кодека : S_TEXT/UTF8
    Идентификатор кодека/Информация : UTF-8 Plain Text
    Продолжительность : 1 ч. 25 м.
    Битрейт : 46 бит/сек
    ElementCount : 1175
    Размер потока : 29, 0 Кбайт (0%)
    Заголовок : Full
    Язык : English
    Default : Нет
    Forced : Нет
    Текст #4
    Идентификатор : 7
    Формат : UTF-8
    Идентификатор кодека : S_TEXT/UTF8
    Идентификатор кодека/Информация : UTF-8 Plain Text
    Продолжительность : 1 ч. 35 м.
    Битрейт : 53 бит/сек
    ElementCount : 1549
    Размер потока : 37, 8 Кбайт (0%)
    Заголовок : SDH (BD 3D US)
    Язык : English
    Default : Нет
    Forced : Нет
    Меню
    00: 00: 00.000 : : 1
    00: 04: 11.835 : : 2
    00: 09: 10.884 : : 3
    00: 13: 42.238 : : 4
    00: 16: 13.598 : : 5
    00: 21: 34.752 : : 6
    00: 25: 02.459 : : 7
    00: 29: 30.435 : : 8
    00: 33: 57.452 : : 9
    00: 36: 43.785 : : 10
    00: 41: 53.010 : : 11
    00: 46: 30.705 : : 12
    00: 50: 42.331 : : 13
    00: 56: 31.555 : : 14
    01: 01: 40.530 : : 15
    01: 06: 33.198 : : 16
    01: 11: 44.425 : : 17
    01: 15: 26.355 : : 18
    01: 20: 41.545 : : 19
    01: 26: 44.408 : : 20

    Скриншоты для ознакомления



    Все одноименные релизы в Клубе
    Время раздачи: c 5 до 19 мск (до появления первых 3-5 скачавших)

    Онлайн видео Эверест


    Эверест / Abominable (2019) BDRip 3D [H.264 / 1080p] [Вертикальная анаморфная стереопара] торрент скачать бесплатно
    Рейтинг →
     (голосов: 1, оценка 4/5, голосовать можно 1 раз )

    Другие торренты по теме:

  • Эверест / Abominable (2019) WEB-DL [H.264 / 1080p-LQ]
  • Эверест / Abominable (2019) WEB-DL [1080p] ATV
  • Эверест / Abominable (2019) WEB-DL [H.264 / 720p]
  • Эверест / Abominable (2019) WEB-DLRip [H.264]
  • Эверест / Abominable (2019) UHD BDRemux [H.265 / 2160p] [4K, HDR, 10-bit]
  • Эверест / Abominable (2019) BDRip [H.264 / 1080p]
  • Эверест / Abominable (2019) BDRemux [H.264 / 1080p]
  • Эверест / Abominable (2019) BDRip [H.264]


    • Комментарии (0):

      Информация

      Информация

        Посетители, находящиеся в группе Гости, не могут оставлять комментарии в данной новости.

        ↓ Меню




        Популярное

        Фиксики против Кработов (2019) WEB-DLRip

        (скачиваний: 134)
        Рик и Морти / Rick and Morty (2015) WEB-DL [H.264 / 1080p] (Сезон 2, серии 1-10 из 10) Сыендук [EN / RU Sub] скачать через торрент бесплатно

        (скачиваний: 109)
        М.Ю. Демидова | ЕГЭ-2020. Физика. 30 типовых вариантов (2020) [PDF]

        (скачиваний: 80)
        Малышарики (2015-2019) WEB-DL [H.264 / 1080p-LQ] (серии 1-154 из 208) [Обновляемая]

        (скачиваний: 68)
        Рик и Морти / Rick and Morty (2013) BDRip [H.264 / 720p-LQ] (сезон 1, серии 1-11 из 11) Сыендук

        (скачиваний: 65)
        Рик и Морти / Rick and Morty (2013) BDRip [H.264 / 1080p] (Сезон 1, серии 1-11 из 11) Сыендук [EN Sub] скачать через торрент бесплатно

        (скачиваний: 46)
        Фиксики против Кработов (2019) WEB-DL [H.264 / 1080p-LQ]

        (скачиваний: 32)
        Свинка Пеппа / Peppa Pig (2004-2012) SATRip (1-4 сезоны: 208 серий из 209) скачать через торрент бесплатно

        (скачиваний: 28)
        Рик и Морти / Rick and Morty (2017) WEBRip [H.264 / 720p-LQ] (Сезон 3, серии 1 из ) Сыендук

        (скачиваний: 26)
        Жила-была царевна (2015-2019) WEB-DLRip [H.264 / 720p-LQ] (сезон 1, серии 1-18 из 26) [Обновляемая]

        (скачиваний: 21)