Подписывайся на наш канал в Telegram https://t.me/torrentok и получи доступ к торрентам без ограничений!
.
Авторизация | Регистрация
bitok.xyz
Торрент скачать бесплатно Мультфильмы торрент скачать Эверест / Abominable (2019) BDRip [H.264 / 1080p] торрент скачать бесплатно


    Эверест / Abominable (2019) BDRip [H.264 / 1080p] торрент скачать бесплатно

    Дата: 14-02-2020, 05:00 | .torrent скачали: 0

    Эверест / Abominable (2019) BDRip [H.264 / 1080p]Производство: Китай, США, DreamWorks Animation, Pearl Studio
    Жанр: Мультфильм, Фэнтези, Комедия, Приключения, Семейный
    Режиссер: Джилл Калтон, Тодд Вилдерман
    Продюсер: Сюзанн Бёрги, Пейлин Чоу, Дейв Полски
    Персонажи: Хлоя Беннет, Альберт Цай, Тензинг Норгай Трэйнор, Джозеф Иццо, Эдди Иззард, Сара Полсон, Цай Чинь, Мишель Вонг, Рич Дитль, Джеймс Хонг

    Описание

    Путешествие на самую высокую точку мира? Что может быть круче! Так решает Лу, когда случайно находит огромное, но очень милое чудовище посреди шумного мегаполиса. Пусть их преследуют ученые из сверхсекретной лаборатории, зато её новый друг умеет смешить и творить чудеса. Лу уверена, что поможет дружелюбному йети вернуться домой — на Эверест.

    Возраст: 6+ (зрителям, достигшим 6 лет)
    Рейтинг MPAA: PG (рекомендуется присутствие родителей)
    Дата мировой премьеры: 7 сентября 2019
    Дата российской премьеры: 3 октября 2019, UPI
    Релиз от: TeamHD
    Продолжительность: 01: 37: 13
    Качество видео: BDRip 1080p
    Перевод: Дублированный (Лицензия)
    Субтитры: русские (Forced, Full), английские (Full, SDH)
    Видео: AVC/H.264, 1920x1040, 14.5 mbps
    Аудио 1: АС3, 6 ch, 640 Kbps, Русский (DUB Blu-ray 3D EUR)
    Аудио 2: E-AC-3, 6 ch, 1536 Kbps, Английский
    Общее
    Уникальный идентификатор : 198506000413862397827921737916565954693 (0x9556DD72DA3E436C9BDB4082C9182085)
    Полное имя : D: MULTAbominable.2019.1080p.BluRay.mkv
    Формат : Matroska
    Версия формата : Version 4
    Размер файла : 11, 3 Гбайт
    Продолжительность : 1 ч. 37 м.
    Общий поток : 16, 7 Мбит/сек
    Дата кодирования : UTC 2020-02-13 05: 39: 04
    Программа кодирования : mkvmerge v8.2.0 (\'World of Adventure\') 64bit
    Библиотека кодирования : libebml v1.3.1 + libmatroska v1.4.2
    Обложка : Yes
    Attachments : cover.jpg
    Видео
    Идентификатор : 1
    Формат : AVC
    Формат/Информация : Advanced Video Codec
    Профиль формата : High@L4.1
    Настройки формата : CABAC/4 Ref Frames
    Параметр CABAC формата : Да
    Параметр RefFrames формата : 4 кадра
    Идентификатор кодека : V_MPEG4/ISO/AVC
    Продолжительность : 1 ч. 37 м.
    Битрейт : 14, 5 Мбит/сек
    Ширина : 1920 пикселей
    Высота : 1040 пикселей
    Соотношение сторон : 1, 85: 1
    Режим частоты кадров : Постоянный
    Частота кадров : 23, 976 (24000/1001) кадра/сек
    Цветовое пространство : YUV
    Субдискретизация насыщенности : 4: 2: 0
    Битовая глубина : 8 бит
    Тип развёртки : Прогрессивная
    Бит/(Пиксели*Кадры) : 0.303
    Размер потока : 9, 85 Гбайт (87%)
    Библиотека кодирования : x264 core 152 r2851kMod ba24899
    Настройки программы : cabac=1/ref=4/deblock=1: -3: -3/analyse=0x3: 0x133/me=umh/subme=10/psy=1/fade_compensate=0.00/psy_rd=1.03: 0.00/mixed_ref=1/me_range=32/chroma_me=1/trellis=2/8x8dct=1/cqm=0/deadzone=21, 11/fast_pskip=0/chroma_qp_offset=-2/threads=12/lookahead_threads=2/sliced_threads=0/nr=0/decimate=1/interlaced=0/bluray_compat=0/constrained_intra=0/bframes=8/b_pyramid=2/b_adapt=2/b_bias=0/direct=3/weightb=1/open_gop=0/weightp=2/keyint=250/keyint_min=23/scenecut=40/intra_refresh=0/rc=2pass/mbtree=0/bitrate=14500/ratetol=1.0/qcomp=0.60/qpmin=0/qpmax=69/qpstep=4/cplxblur=20.0/qblur=0.5/ip_ratio=1.30/pb_ratio=1.20/aq=3: 0.70/zones=16, 604, b=1.4/1405, 1806, b=1.2/2016, 4123, b=1.4/4176, 5507, b=1.4/18576, 19801, b=1.4/27066, 32605, b=1.4/52888, 58744, b=1.4/71326, 78977, b=1.4/124799, 127999, b=1.3
    Язык : English
    Default : Да
    Forced : Нет
    Цветовой диапазон : Limited
    Коэффициенты матрицы : BT.709
    Аудио #1
    Идентификатор : 2
    Формат : AC-3
    Формат/Информация : Audio Coding 3
    Коммерческое название : Dolby Digital
    Идентификатор кодека : A_AC3
    Продолжительность : 1 ч. 37 м.
    Вид битрейта : Постоянный
    Битрейт : 640 Кбит/сек
    Каналы : 6 каналов
    ChannelLayout : L R C LFE Ls Rs
    Частота : 48, 0 КГц
    Частота кадров : 31, 250 кадров/сек (1536 SPF)
    Метод сжатия : С потерями
    Размер потока : 445 Мбайт (4%)
    Заголовок : Дубляж, Blu-ray 3D EUR
    Язык : Russian
    ServiceKind/String : Complete Main
    Default : Да
    Forced : Нет
    Аудио #2
    Идентификатор : 3
    Формат : E-AC-3
    Формат/Информация : Enhanced AC-3
    Коммерческое название : Dolby Digital Plus
    Профиль формата : Blu-ray Disc
    Идентификатор кодека : A_EAC3
    Продолжительность : 1 ч. 37 м.
    Вид битрейта : Постоянный
    Битрейт : 1536 Кбит/сек
    Каналы : 6 каналов
    Channel(s)_Original : 8 каналов
    ChannelLayout_Original : L R C LFE Ls Rs Lrs Rrs
    Частота : 48, 0 КГц
    Частота кадров : 31, 250 кадров/сек (1536 SPF)
    Метод сжатия : С потерями
    Размер потока : 1, 04 Гбайт (9%)
    Язык : English
    ServiceKind/String : Complete Main
    Default : Нет
    Forced : Нет
    Текст #1
    Идентификатор : 4
    Формат : UTF-8
    Идентификатор кодека : S_TEXT/UTF8
    Идентификатор кодека/Информация : UTF-8 Plain Text
    Продолжительность : 1 ч. 23 м.
    Битрейт : 0 бит/сек
    ElementCount : 9
    Размер потока : 325 байт (0%)
    Заголовок : Forced
    Язык : Russian
    Default : Да
    Forced : Нет
    Текст #2
    Идентификатор : 5
    Формат : UTF-8
    Идентификатор кодека : S_TEXT/UTF8
    Идентификатор кодека/Информация : UTF-8 Plain Text
    Продолжительность : 1 ч. 25 м.
    Битрейт : 67 бит/сек
    ElementCount : 997
    Размер потока : 42, 3 Кбайт (0%)
    Язык : Russian
    Default : Нет
    Forced : Нет
    Текст #3
    Идентификатор : 6
    Формат : UTF-8
    Идентификатор кодека : S_TEXT/UTF8
    Идентификатор кодека/Информация : UTF-8 Plain Text
    Продолжительность : 1 ч. 25 м.
    Битрейт : 45 бит/сек
    ElementCount : 1090
    Размер потока : 28, 3 Кбайт (0%)
    Язык : English
    Default : Нет
    Forced : Нет
    Текст #4
    Идентификатор : 7
    Формат : UTF-8
    Идентификатор кодека : S_TEXT/UTF8
    Идентификатор кодека/Информация : UTF-8 Plain Text
    Продолжительность : 1 ч. 35 м.
    Битрейт : 53 бит/сек
    ElementCount : 1545
    Размер потока : 37, 5 Кбайт (0%)
    Заголовок : SDH
    Язык : English
    Default : Нет
    Forced : Нет
    Меню
    00: 00: 00.000 : : Chapter 01
    00: 04: 11.833 : : Chapter 02
    00: 09: 10.883 : : Chapter 03
    00: 13: 42.238 : : Chapter 04
    00: 16: 13.597 : : Chapter 05
    00: 21: 34.751 : : Chapter 06
    00: 25: 02.458 : : Chapter 07
    00: 29: 30.435 : : Chapter 08
    00: 33: 57.452 : : Chapter 09
    00: 36: 43.784 : : Chapter 10
    00: 41: 53.010 : : Chapter 11
    00: 46: 30.704 : : Chapter 12
    00: 50: 42.330 : : Chapter 13
    00: 56: 31.554 : : Chapter 14
    01: 01: 40.530 : : Chapter 15
    01: 06: 33.197 : : Chapter 16
    01: 11: 44.425 : : Chapter 17
    01: 15: 26.354 : : Chapter 18
    01: 20: 41.545 : : Chapter 19
    01: 26: 44.407 : : Chapter 20

    Скриншоты для ознакомления



    Все одноименные релизы в Клубе
    Время раздачи: c 5 до 19 мск (до появления первых 3-5 скачавших)

    Онлайн видео Эверест


    Эверест / Abominable (2019) BDRip [H.264 / 1080p] торрент скачать бесплатно
    Рейтинг →
     (голосов: 1, оценка 5/5, голосовать можно 1 раз )

    Другие торренты по теме:

  • Эверест / Abominable (2019) WEB-DL [H.264 / 1080p-LQ]
  • Эверест / Abominable (2019) WEB-DL [1080p] ATV
  • Эверест / Abominable (2019) WEB-DL [H.264 / 720p]
  • Эверест / Abominable (2019) WEB-DLRip [H.264]
  • Эверест / Abominable (2019) UHD BDRemux [H.265 / 2160p] [4K, HDR, 10-bit]
  • Эверест / Abominable (2019) BDRip [H.264 / 1080p]
  • Эверест / Abominable (2019) BDRemux [H.264 / 1080p]
  • Эверест / Abominable (2019) BDRip [H.264]


    • Комментарии (0):

      Информация

      Информация

        Посетители, находящиеся в группе Гости, не могут оставлять комментарии в данной новости.

        ↓ Меню




        Популярное

        Фиксики против Кработов (2019) WEB-DLRip

        (скачиваний: 134)
        Рик и Морти / Rick and Morty (2015) WEB-DL [H.264 / 1080p] (Сезон 2, серии 1-10 из 10) Сыендук [EN / RU Sub] скачать через торрент бесплатно

        (скачиваний: 109)
        М.Ю. Демидова | ЕГЭ-2020. Физика. 30 типовых вариантов (2020) [PDF]

        (скачиваний: 80)
        Малышарики (2015-2019) WEB-DL [H.264 / 1080p-LQ] (серии 1-154 из 208) [Обновляемая]

        (скачиваний: 68)
        Рик и Морти / Rick and Morty (2013) BDRip [H.264 / 720p-LQ] (сезон 1, серии 1-11 из 11) Сыендук

        (скачиваний: 65)
        Рик и Морти / Rick and Morty (2013) BDRip [H.264 / 1080p] (Сезон 1, серии 1-11 из 11) Сыендук [EN Sub] скачать через торрент бесплатно

        (скачиваний: 46)
        Фиксики против Кработов (2019) WEB-DL [H.264 / 1080p-LQ]

        (скачиваний: 32)
        Свинка Пеппа / Peppa Pig (2004-2012) SATRip (1-4 сезоны: 208 серий из 209) скачать через торрент бесплатно

        (скачиваний: 28)
        Рик и Морти / Rick and Morty (2017) WEBRip [H.264 / 720p-LQ] (Сезон 3, серии 1 из ) Сыендук

        (скачиваний: 26)
        Жила-была царевна (2015-2019) WEB-DLRip [H.264 / 720p-LQ] (сезон 1, серии 1-18 из 26) [Обновляемая]

        (скачиваний: 21)