Подписывайся на наш канал в Telegram https://t.me/torrentok и получи доступ к торрентам без ограничений!
.
Авторизация | Регистрация
bitok.xyz
Торрент скачать бесплатно Мультфильмы торрент скачать Сумасбродные мелодии: Коллекция / Looney Tunes: Сollection (1936-1966) BDRip [H.264 / 720p] торрент скачать бесплатно


    Сумасбродные мелодии: Коллекция / Looney Tunes: Сollection (1936-1966) BDRip [H.264 / 720p] торрент скачать бесплатно

    Дата: 14-02-2020, 05:00 | .torrent скачали: 0

    Сумасбродные мелодии: Коллекция / Looney Tunes: Сollection (1936-1966) BDRip [H.264 / 720p]Производство: США
    Жанр: Мультфильм, комедия, семейный
    Режиссер: Тэкс Эвери, Боб Клэмпетт, Фриц Фреленг, Чак Джонс

    Описание

    169 одних из самых великолепных мультфильмов серии Looney Tunes

    Продолжительность: 169 x ~00: 08: 00
    Качество видео: BDRip 720p
    Перевод: Многоголосый профессиональный
    Субтитры: отсутствуют
    Видео: AVC/H.264, 962x720 - 988х720, ~5000 - 14000 kbps
    Аудио 1: AC3, 1 ch, 192 kbps, Русский (MVO Омикрон)
    Аудио 2: AC3, 1 ch, 192 kbps, Английский
    Общее
    Уникальный идентификатор : 170699964855033662456539439656980023103 (0x806B9E0CBF6F0A7586C9184600ED873F)
    Полное имя : C: UsersADMINDesktopLooney.Tunes.CollectionСумасбродные мелодии том 11 Заяц Тоник.mkv
    Формат : Matroska
    Версия формата : Version 2
    Размер файла : 442 Мбайт
    Продолжительность : 8 м. 20 с.
    Общий поток : 7404 Кбит/сек
    Дата кодирования : UTC 2019-01-13 18: 00: 31
    Программа кодирования : mkvmerge v5.8.0 (\'No Sleep/Pillow\') built on Sep 2 2012 15: 37: 04
    Библиотека кодирования : libebml v1.2.3 + libmatroska v1.3.0
    Видео
    Идентификатор : 1
    Формат : AVC
    Формат/Информация : Advanced Video Codec
    Профиль формата : High@L4.1
    Настройки формата : CABAC/11 Ref Frames
    Параметр CABAC формата : Да
    Параметр RefFrames формата : 11 кадров
    Идентификатор кодека : V_MPEG4/ISO/AVC
    Продолжительность : 8 м. 20 с.
    Битрейт : 7000 Кбит/сек
    Ширина : 984 пикселя
    Высота : 720 пикселей
    Соотношение сторон : 4: 3
    Режим частоты кадров : Постоянный
    Частота кадров : 23, 976 (24000/1001) кадра/сек
    Цветовое пространство : YUV
    Субдискретизация насыщенности : 4: 2: 0
    Битовая глубина : 8 бит
    Тип развёртки : Прогрессивная
    Бит/(Пиксели*Кадры) : 0.412
    Размер потока : 410 Мбайт (93%)
    Библиотека кодирования : x264 core 152 r2851kMod ba24899
    Настройки программы : cabac=1/ref=11/deblock=1: -2: -2/analyse=0x3: 0x113/me=umh/subme=11/psy=1/fade_compensate=0.00/psy_rd=0.98: 0.00/mixed_ref=1/me_range=48/chroma_me=1/trellis=2/8x8dct=1/cqm=0/deadzone=21, 11/fast_pskip=0/chroma_qp_offset=-2/threads=12/lookahead_threads=3/sliced_threads=0/nr=0/decimate=0/interlaced=0/bluray_compat=0/constrained_intra=0/bframes=12/b_pyramid=2/b_adapt=2/b_bias=0/direct=3/weightb=1/open_gop=0/weightp=2/keyint=240/keyint_min=23/scenecut=40/intra_refresh=0/rc_lookahead=40/rc=2pass/mbtree=0/bitrate=7000/ratetol=1.0/qcomp=0.60/qpmin=0/qpmax=39/qpstep=4/cplxblur=20.0/qblur=0.5/vbv_maxrate=50000/vbv_bufsize=62500/nal_hrd=none/filler=0/ip_ratio=1.25/pb_ratio=1.30/aq=1: 0.80
    Язык : English
    Default : Да
    Forced : Нет
    Цветовой диапазон : Limited
    Основные цвета : BT.709
    Характеристики трансфера : BT.709
    Коэффициенты матрицы : BT.709
    Аудио #1
    Идентификатор : 2
    Формат : AC-3
    Формат/Информация : Audio Coding 3
    Коммерческое название : Dolby Digital
    Идентификатор кодека : A_AC3
    Продолжительность : 8 м. 20 с.
    Вид битрейта : Постоянный
    Битрейт : 192 Кбит/сек
    Каналы : 1 канал
    ChannelLayout : C
    Частота : 48, 0 КГц
    Частота кадров : 31, 250 кадров/сек (1536 SPF)
    Метод сжатия : С потерями
    Размер потока : 11, 4 Мбайт (3%)
    Язык : Russian
    ServiceKind/String : Complete Main
    Default : Да
    Forced : Нет
    Аудио #2
    Идентификатор : 3
    Формат : AC-3
    Формат/Информация : Audio Coding 3
    Коммерческое название : Dolby Digital
    Идентификатор кодека : A_AC3
    Продолжительность : 8 м. 20 с.
    Вид битрейта : Постоянный
    Битрейт : 192 Кбит/сек
    Каналы : 1 канал
    ChannelLayout : C
    Частота : 48, 0 КГц
    Частота кадров : 31, 250 кадров/сек (1536 SPF)
    Метод сжатия : С потерями
    Размер потока : 11, 4 Мбайт (3%)
    Язык : English
    ServiceKind/String : Complete Main
    Default : Нет
    Forced : Нет


    Онлайн видео Сумасбродные мелодии: Коллекция


    Сумасбродные мелодии: Коллекция / Looney Tunes: Сollection (1936-1966) BDRip [H.264 / 720p] торрент скачать бесплатно
    Рейтинг →
     (голосов: 1, оценка 5/5, голосовать можно 1 раз )

    Другие торренты по теме:

  • Сумасбродные мелодии: Коллекционное издание / Looney Tunes: Ultimate Collectors Edition (1936-1966) HDRip [H.264] Омикрон [MP4|496х360, 488х360, 480х360] скачать через торрент бесплатно


    • Комментарии (0):

      Информация

      Информация

        Посетители, находящиеся в группе Гости, не могут оставлять комментарии в данной новости.

        ↓ Меню




        Популярное

        Жила-была царевна (2015-2019) WEB-DLRip [H.264 / 720p-LQ] (сезон 1, серии 1-18 из 26) [Обновляемая]

        (скачиваний: 3)
        Сергей Матвеев | Полный курс английского языка для лентяев (2016) [PDF]

        (скачиваний: 3)
        Серия книг | Образовательная манга (2010 - 2015) [PDF]

        (скачиваний: 3)
        Gekijouban KanColle | Kantai Collection Movie | Fleet Girls Collection: Movie Sequence| Коллекционная флотилия на большом экране [2016, Movie] BDrip 720p 10bit raw

        (скачиваний: 3)
        Свинка Пеппа / Peppa Pig (2004-2012) SATRip (1-4 сезоны: 208 серий из 209) скачать через торрент бесплатно

        (скачиваний: 2)
        Соман Чайнани | Цикл: «Школа Добра и Зла» [5 книг] (2018-2019) [FB2]

        (скачиваний: 1)
        Ева Ибботсон | Агентство «Фантом в каждый дом» (2018) [FB2, EPUB]

        (скачиваний: 1)
        Teito Monogatari / Doomed Megalopolis / Столичная история [1991, OVA, 4 ep.] DVDRip raw +eng

        (скачиваний: 1)
        Эндрю Лумис | Искусное рисование (2015) [PDF]

        (скачиваний: 1)
        Джим Роджерс | Сделайте ваших детей успешными (2013) [PDF, EPUB] скачать через торрент бесплатно

        (скачиваний: 1)