ВАЖНО! Сайт скоро заблокируют! Подписывайся на наш канал в Telegram https://t.me/torrentok и получи доступ к торрентам без ограничений!
.
Авторизация | Регистрация
bitok.xyz
Торрент скачать бесплатно Мультфильмы торрент скачать Незнайка с нашего двора (1983) DVDRip торрент скачать бесплатно


    Незнайка с нашего двора (1983) DVDRip торрент скачать бесплатно

    Дата: 14-02-2020, 05:00 | .torrent скачали: 1

    Незнайка с нашего двора (1983) DVDRipПроизводство: СССР/Одесская киностудия
    Жанр: Детский, Фэнтези, Комедия, Приключения, Семейный
    Режиссер: Игорь Апасян, Ирма Рауш

    Актеры
    Валерик Сонгин, Андрей Левищенко, Максим Раевский, Женя Адеев, Артем Тихомиров, Настя Стерлигова, Маня Попкова, Аня Ганелина, Андрей Вингаватов, Артем Гегнер, Коля Лосев, Антон Аксаментов, Сережа Назаров, Мария Саффо (Слидовкер), Сережа Ефремов, Максим Сабиров, Юлия Климова, Юрий Торсуев, Владимир Торсуев

    Описание

    Жил — был мальчишка, которого во дворе все дразнили Незнайкой, за то, что он много фантазировал и ничего не знал наверняка. И было у Незнайки две заветных мечты — найти волшебную палочку и встретиться с волшебником. И вот однажды его мечты сбылись. Осенним вечером в город пришли волшебники и взмахом волшебной палочки перенесли Незнайку и его друзей в настоящую сказку…

    Возраст: 6+ (зрителям, достигшим 6 лет)
    Продолжительность: 01: 03: 46 + 01: 03: 05
    Качество видео: DVDRip
    Видео: Xvid, 704x528, ~1854 Kbps
    Аудио: AC3, 6 ch, 448 Kbps
    Общее
    Полное имя : F: Neznayka_s_naschedo_dvora1_Neznayka_s_naschedo_dvora.avi
    Формат : AVI
    Формат/Информация : Audio Video Interleave
    Размер файла : 1, 03 Гбайт
    Продолжительность : 1 ч. 3 м.
    Общий поток : 2312 Кбит/сек
    Программа кодирования : VirtualDubModRus 1.5.10.2 (build 2542/release)
    Библиотека кодирования : VirtualDubMod build 2542/release
    Видео
    Идентификатор : 0
    Формат : MPEG-4 Visual
    Параметр BVOP формата : 1
    Параметр QPel формата : Нет
    Параметр GMC формата : Без точки перехода
    Параметр матрицы формата : Default (H.263)
    Режим смешивания : Сжатый битовый поток
    Идентификатор кодека : DX50
    Идентификатор кодека/Подсказка : DivX 5
    Продолжительность : 1 ч. 3 м.
    Битрейт : 1854 Кбит/сек
    Ширина : 704 пикселя
    Высота : 528 пикселей
    Соотношение сторон : 4: 3
    Частота кадров : 25, 000 кадров/сек
    Цветовое пространство : YUV
    Субдискретизация насыщенности : 4: 2: 0
    Битовая глубина : 8 бит
    Тип развёртки : Прогрессивная
    Метод сжатия : С потерями
    Бит/(Пиксели*Кадры) : 0.200
    Размер потока : 846 Мбайт (80%)
    Библиотека кодирования : DivX 6.8.3-6.8.4 (UTC 2008-06-07)
    Аудио
    Идентификатор : 1
    Формат : AC-3
    Формат/Информация : Audio Coding 3
    Расширение режима : CM (complete main)
    Параметр Endianness формата : Big
    Идентификатор кодека : 2000
    Продолжительность : 1 ч. 3 м.
    Вид битрейта : Постоянный
    Битрейт : 448 Кбит/сек
    Каналы : 6 каналов
    Расположение каналов : Front: L C R, Side: L R, LFE
    Частота : 48, 0 КГц
    Частота кадров : 31, 250 кадров/сек (1536 spf)
    Метод сжатия : С потерями
    Размер потока : 204 Мбайт (19%)
    Выравнивание : Соединение по промежуткам
    Продолжительность промежутка : 40 мс. (1, 00 видеокадр)
    Время предзагрузки промежутка : 512 мс.

    Общее
    Полное имя : F: Neznayka_s_naschedo_dvora2_Neznayka_s_naschedo_dvora.avi
    Формат : AVI
    Формат/Информация : Audio Video Interleave
    Размер файла : 1, 02 Гбайт
    Продолжительность : 1 ч. 3 м.
    Общий поток : 2313 Кбит/сек
    Программа кодирования : VirtualDubModRus 1.5.10.2 (build 2542/release)
    Библиотека кодирования : VirtualDubMod build 2542/release
    Видео
    Идентификатор : 0
    Формат : MPEG-4 Visual
    Параметр BVOP формата : 1
    Параметр QPel формата : Нет
    Параметр GMC формата : Без точки перехода
    Параметр матрицы формата : Default (H.263)
    Режим смешивания : Сжатый битовый поток
    Идентификатор кодека : DX50
    Идентификатор кодека/Подсказка : DivX 5
    Продолжительность : 1 ч. 3 м.
    Битрейт : 1855 Кбит/сек
    Ширина : 704 пикселя
    Высота : 528 пикселей
    Соотношение сторон : 4: 3
    Частота кадров : 25, 000 кадров/сек
    Цветовое пространство : YUV
    Субдискретизация насыщенности : 4: 2: 0
    Битовая глубина : 8 бит
    Тип развёртки : Прогрессивная
    Метод сжатия : С потерями
    Бит/(Пиксели*Кадры) : 0.200
    Размер потока : 837 Мбайт (80%)
    Библиотека кодирования : DivX 6.8.3-6.8.4 (UTC 2008-06-07)
    Аудио
    Идентификатор : 1
    Формат : AC-3
    Формат/Информация : Audio Coding 3
    Расширение режима : CM (complete main)
    Параметр Endianness формата : Big
    Идентификатор кодека : 2000
    Продолжительность : 1 ч. 3 м.
    Вид битрейта : Постоянный
    Битрейт : 448 Кбит/сек
    Каналы : 6 каналов
    Расположение каналов : Front: L C R, Side: L R, LFE
    Частота : 48, 0 КГц
    Частота кадров : 31, 250 кадров/сек (1536 spf)
    Метод сжатия : С потерями
    Размер потока : 202 Мбайт (19%)
    Выравнивание : Соединение по промежуткам
    Продолжительность промежутка : 40 мс. (1, 00 видеокадр)
    Время предзагрузки промежутка : 512 мс./pre
    Скриншоты для ознакомления



    Все одноименные релизы в Клубе
    Время раздачи: 24/7 (до появления первых 3-5 скачавших)

    Онлайн видео Т.Н. Терещенко (ред.)


    Незнайка с нашего двора (1983) DVDRip торрент скачать бесплатно
    Рейтинг →
     (голосов: 1, оценка 4/5, голосовать можно 1 раз )

    Другие торренты по теме:

  • Незнайка с нашего двора (1983) DVDRip [H.264]


    • Комментарии (0):

      Информация

      Информация

        Посетители, находящиеся в группе Гости, не могут оставлять комментарии в данной новости.

        ↓ Меню




        Популярное

        Металионы / Metalions (2018-2019) WEB-DLRip [H.264 / 720p-LQ] (сезон 1, серии 1-52 из 52) [Обновляемая]

        (скачиваний: 11)
        Фиксики против Кработов (2019) WEB-DL [H.264 / 1080p-LQ]

        (скачиваний: 10)
        Роботы-пожарные / Fire Robo (2016) WEB-DLRip [H.264 / 720p-LQ] (сезон 1, серии 1-26 из 26) [Обновляемая]

        (скачиваний: 8)
        Фиксики против Кработов (2019) WEB-DLRip

        (скачиваний: 7)
        Жила-была царевна (2015-2019) WEB-DLRip [H.264 / 720p-LQ] (сезон 1, серии 1-18 из 26) [Обновляемая]

        (скачиваний: 7)
        Лея Уотерс | Переключение на силу. Как научиться видеть в детях сильные стороны, чтобы помочь им расцвести (2019) [EPUB]

        (скачиваний: 5)
        Kaze no Na wa Amnesia / A Wind Named Amnesia / Ветер амнезии [1990, MV] DVDRip raw

        (скачиваний: 5)
        Канакина В. П., Горецкий В. Г. Электронное приложение к учебнику «Русский язык», 2 класс (2012) [ISO] скачать через торрент бесплатно

        (скачиваний: 5)
        Александр Нилл | Воспитание свободой. Школа Саммерхилл (2020) [EPUB]

        (скачиваний: 5)
        Роберт Кийосаки | Богатый папа, бедный папа для подростков (2014) [PDF, FB2]

        (скачиваний: 5)