Подписывайся на наш канал в Telegram https://t.me/torrentok и получи доступ к торрентам без ограничений!
.
Авторизация | Регистрация
bitok.xyz
Торрент скачать бесплатно Мультфильмы торрент скачать Скуби-Ду и проклятье тринадцатого призрака / Scooby-Doo! and the Curse of the 13th Ghost (2019) WEB-DLRip [H.264 / 1080p-LQ] [MVO] торрент скачать бесплатно


    Скуби-Ду и проклятье тринадцатого призрака / Scooby-Doo! and the Curse of the 13th Ghost (2019) WEB-DLRip [H.264 / 1080p-LQ] [MVO] торрент скачать бесплатно

    Дата: 14-02-2020, 05:00 | .torrent скачали: 0

    Скуби-Ду и проклятье тринадцатого призрака / Scooby-Doo! and the Curse of the 13th Ghost (2019) WEB-DLRip [H.264 / 1080p-LQ] [MVO]Производство: США/Hanna-Barbera Productions, Warner Bros. Animation
    Жанр: мультфильм, ужасы, фэнтези, боевик, комедия, детектив, приключения, семейный

    Описание

    Скуби-Ду с командой должны поймать последнего из тринадцати призраков, за которыми они охотились много лет назад.

    Релиз от: Astral Projection
    Продолжительность: 01: 22: 10
    Качество видео: WEB-DLRip
    Перевод: Многоголосый профессиональный (HD Rezka Studio)
    Субтитры: Отсутствуют
    Видео: AVC/H.264, 1912x1072, ~5062 Kbps
    Аудио#1: AC3, 6 ch, 448 Kbps | Русский (MVO)
    Аудио#2: AC3, 6 ch, 384 Kbps | Английский
    Format : Matroska
    Format version : Version 4
    File size : 3.38 GiB
    Duration : 1 h 22 min
    Overall bit rate : 5 893 kb/s
    Encoded date : UTC 2020-02-13 09: 53: 23
    Writing application : mkvmerge v43.0.0 (\'The Quartermaster\') 64-bit
    Writing library : libebml v1.3.10 + libmatroska v1.5.2
    Video
    ID : 1
    Format : AVC
    Format/Info : Advanced Video Codec
    Format profile : High@L4
    Format settings : CABAC/4 Ref Frames
    Format settings, CABAC : Yes
    Format settings, Reference frames : 4 frames
    Codec ID : V_MPEG4/ISO/AVC
    Duration : 1 h 22 min
    Bit rate : 5 062 kb/s
    Width : 1 912 pixels
    Height : 1 072 pixels
    Display aspect ratio : 16: 9
    Frame rate mode : Constant
    Frame rate : 23.976 (23976/1000) FPS
    Color space : YUV
    Chroma subsampling : 4: 2: 0
    Bit depth : 8 bits
    Scan type : Progressive
    Bits/(Pixel*Frame) : 0.103
    Stream size : 2.90 GiB (86%)
    Language : English
    Default : Yes
    Forced : No
    Color range : Limited
    Color primaries : BT.709
    Transfer characteristics : BT.709
    Matrix coefficients : BT.709
    Audio #1
    ID : 2
    Format : AC-3
    Format/Info : Audio Coding 3
    Commercial name : Dolby Digital
    Codec ID : A_AC3
    Duration : 1 h 22 min
    Bit rate mode : Constant
    Bit rate : 448 kb/s
    Channel(s) : 6 channels
    Channel layout : L R C LFE Ls Rs
    Sampling rate : 48.0 kHz
    Frame rate : 31.250 FPS (1536 SPF)
    Compression mode : Lossy
    Delay relative to video : -27 ms
    Stream size : 263 MiB (8%)
    Language : Russian
    Service kind : Complete Main
    Default : No
    Forced : No
    Audio #2
    ID : 3
    Format : AC-3
    Format/Info : Audio Coding 3
    Commercial name : Dolby Digital
    Codec ID : A_AC3
    Duration : 1 h 21 min
    Bit rate mode : Constant
    Bit rate : 384 kb/s
    Channel(s) : 6 channels
    Channel layout : L R C LFE Ls Rs
    Sampling rate : 48.0 kHz
    Frame rate : 31.250 FPS (1536 SPF)
    Compression mode : Lossy
    Delay relative to video : -43 ms
    Stream size : 225 MiB (7%)
    Language : English
    Service kind : Complete Main
    Default : Yes
    Forced : No

    Скриншоты для ознакомления



    Все одноименные релизы в Клубе
    Время раздачи: с 10: 00 до 2: 30 (до появления первых 3-5 скачавших)

    Онлайн видео Скуби-Ду и проклятье тринадцатого призрака


    Скуби-Ду и проклятье тринадцатого призрака / Scooby-Doo! and the Curse of the 13th Ghost (2019) WEB-DLRip [H.264 / 1080p-LQ] [MVO] торрент скачать бесплатно
    Рейтинг →
     (голосов: 1, оценка 5/5, голосовать можно 1 раз )

    Другие торренты по теме:

  • Скуби-Ду: Франкен-монстр / Scooby-Doo! Frankencreepy (2014) BDRemux (1080p) скачать через торрент бесплатно
  • Скуби-Ду и KISS: Тайна рок-н-ролла / Scooby-Doo! And Kiss: Rock and Roll Mystery (2015) BDRip [H.264 / 720p] скачать через торрент бесплатно
  • Скуби-Ду и KISS: Тайна рок-н-ролла / Scooby-Doo! And Kiss: Rock and Roll Mystery (2015) HDRip скачать через торрент бесплатно
  • Скуби-Ду и KISS: Тайна рок-н-ролла / Scooby-Doo! And Kiss: Rock and Roll Mystery (2015) BDRip [H.264 / 1080p] скачать через торрент бесплатно
  • Скуби-Ду и KISS: Тайна рок-н-ролла / Scooby-Doo! And Kiss: Rock and Roll Mystery (2015) BDRemux [H.264 / 1080p] скачать через торрент бесплатно
  • Скуби-Ду и KISS: Тайна рок-н-ролла / Scooby-Doo! And Kiss: Rock and Roll Mystery (2015) BDRip [576p] iPad скачать через торрент бесплатно
  • Скуби-Ду и KISS: Тайна рок-н-ролла / Scooby-Doo! And Kiss: Rock and Roll Mystery (2015) BDRip [720p] ATV скачать через торрент бесплатно
  • Скуби-Ду и KISS: Тайна рок-н-ролла / Scooby-Doo! And Kiss: Rock and Roll Mystery (2015) BDRip [1080p] ATV скачать через торрент бесплатно


    • Комментарии (0):

      Информация

      Информация

        Посетители, находящиеся в группе Гости, не могут оставлять комментарии в данной новости.

        ↓ Меню




        Популярное

        Фиксики против Кработов (2019) WEB-DLRip

        (скачиваний: 134)
        Рик и Морти / Rick and Morty (2015) WEB-DL [H.264 / 1080p] (Сезон 2, серии 1-10 из 10) Сыендук [EN / RU Sub] скачать через торрент бесплатно

        (скачиваний: 109)
        М.Ю. Демидова | ЕГЭ-2020. Физика. 30 типовых вариантов (2020) [PDF]

        (скачиваний: 80)
        Малышарики (2015-2019) WEB-DL [H.264 / 1080p-LQ] (серии 1-154 из 208) [Обновляемая]

        (скачиваний: 68)
        Рик и Морти / Rick and Morty (2013) BDRip [H.264 / 720p-LQ] (сезон 1, серии 1-11 из 11) Сыендук

        (скачиваний: 65)
        Рик и Морти / Rick and Morty (2013) BDRip [H.264 / 1080p] (Сезон 1, серии 1-11 из 11) Сыендук [EN Sub] скачать через торрент бесплатно

        (скачиваний: 46)
        Фиксики против Кработов (2019) WEB-DL [H.264 / 1080p-LQ]

        (скачиваний: 32)
        Свинка Пеппа / Peppa Pig (2004-2012) SATRip (1-4 сезоны: 208 серий из 209) скачать через торрент бесплатно

        (скачиваний: 28)
        Рик и Морти / Rick and Morty (2017) WEBRip [H.264 / 720p-LQ] (Сезон 3, серии 1 из ) Сыендук

        (скачиваний: 26)
        Жила-была царевна (2015-2019) WEB-DLRip [H.264 / 720p-LQ] (сезон 1, серии 1-18 из 26) [Обновляемая]

        (скачиваний: 21)