ВАЖНО! Сайт скоро заблокируют! Подписывайся на наш канал в Telegram https://t.me/torrentok и получи доступ к торрентам без ограничений!
.
Авторизация | Регистрация
bitok.xyz
Торрент скачать бесплатно Мультфильмы торрент скачать Cross Ange: Tenshi to Ryuu no Rondo | Cross Ange: Rondo of Angel and Dragon | Крест Анжи. Танец Ангела с Драконом [2014, TV, 25 ep] BDRip 1080p 10-bit raw+rus торрент скачать бесплатно


    Cross Ange: Tenshi to Ryuu no Rondo | Cross Ange: Rondo of Angel and Dragon | Крест Анжи. Танец Ангела с Драконом [2014, TV, 25 ep] BDRip 1080p 10-bit raw+rus торрент скачать бесплатно

    Дата: 14-02-2020, 05:00 | .torrent скачали: 0

    Cross Ange: Tenshi to Ryuu no Rondo | Cross Ange: Rondo of Angel and Dragon | Крест Анжи. Танец Ангела с Драконом [2014, TV, 25 ep] BDRip 1080p 10-bit raw+rusТип: TV
    Жанр: Приключения, Фантастика, Меха
    Продолжительность: 25 Эпизодов по 23 Мин.
    Количество серий: 25 Эпизодов
    Дата выпуска: c05.10.2014 по29.03.2015
    Автор оригинала: Хигути Тацуто
    Режиссер: Асино Ёсихару
    Производство: Sunrise/ Япония

    World-Art |AniDB |MyAnimelist |Shikimori

    Описание

    Человечество изобрело особую технологию, называемую маной, по своим свойствам похожую на магию. С её помощью на Земле удалось создать идеальный мир без войн, голода, экологических проблем и насилия — утопическое государство, империю Мисуруги. При этом в мире существуют нормы — люди, не способные использовать ману и разрушающие её действие. Нормами могут быть только девушки. К нормам в империи Мисуруги относятся как к отвратительным существам, считая их вещами, а не людьми.
    Первая принцесса империи Анжелиз Икаруга Мисуруги готовится впервые принять участие в политической жизни страны, как вдруг выясняется, что она — норма. Её задерживают и отправляют на отдалённый остров, куда ссылают всех представителей этого вида. Остров для них — и дом, и тюрьма, и работа, так как нормам уготовлена участь воинов, защищающих империю от существ из параллельных миров — драконов, вторгающихся в этот мир сквозь разломы и угрожающих человечеству. Пилотируя боевые машины, нормы уничтожают драконов, часто ценой своих жизней.
    Анжелиз до конца не желает осознавать, что она норма, и ведёт себя высокомерно, чем вызывает неприязнь многих девушек на острове. Потеряв свой дворянский титул, она отчаянно пытается оставаться собой. В прошлом героиня заявляла, что здорово было бы всем нормам умереть — мир стал бы лучше. Сможет ли Анжелиз измениться, вытерпеть издевательства, сложные бои, выжить и вернуть своё имя?
    Автор: Unagi-san ©Shikimori
    Качество Видео: BDRip,
    Видео: AVC/x264 , 1920x1080, 23.976 fps, 6 923 kb/s, 0.139 bpp10-bit
    Язык Озвучки: Японский и Русский
    Озвучка: Многоголосая закадровая
    Аудио №1: AC32.0 , 48.0 kHz, 192 kb/s(AniDub) |Язык:
    Аудио №2: AAC2.0 , 48.0 kHz, 192 kb/s(Shiza Project) |Язык:
    Аудио №3: FLAC2.0 , 48.0 kHz, 1 492 kb/s 24-Bit(Original) |Язык:
    Субтитры: Надписи/Полные(Zero Мария Гостюхина)

    Скриншоты для ознакомления







    01. Fallen Princess (Низложение)
    02. Disobedient Soul (Непокорная)
    03. Villkiss Awakens (Пробуждение Вилкисса)
    04. A Loners Revolt (Бунт одиночки)
    05. Ange, Lost (Пропавшая без вести)
    06. Momokas Here! (А вот и Момока!)
    07. Salias Depression (Меланхолия Салии)
    08. Bikini Escape (Побег под прикрытием)
    09. The Hometown of Betrayal (Родина предательства)
    10. Goodbye from the Gallows (До встречи на виселице)
    11. Dragon Song (Песня дракона)
    12. Her Right Arms Past (Исповедь отверженной)
    13. Arzenal in Flames (Пылающий Арсенал)
    14. Ange and Tusk (Затерянные)
    15. The Other Earth (Другая земля)
    16. Resonant Battlefront (Резонанс миров)
    17. The Black Angel of Destruction (Ангел разрушения)
    18. The Sea of Parting (Другой выбор)
    19. Tuner of Time (Настройщик мира)
    20. Soul of God (Чего желает бог)
    21. The One Left Behind (Те, кого мы потеряли)
    22. Necessary (Ради чего жить)
    23. The Warped World (Искаженный мир)
    24. A Battle with No Tomorrow (Железная дева)
    25. To the End of Time (За гранью)

    General
    Unique ID : 89801838127259176121759603940012347002 (0x438F34750C9E14B78C1C60FDEDB04E7A)
    Complete name : J: АнимеКрест Анжи. Танец Ангела с Драконом (Cross Ange Tenshi to Ryuu no Rondo) BDRip (2014)1. Fallen Princess (Низложение).mkv
    Format : Matroska
    Format version : Version 4
    File size : 1.46 GiB
    Duration : 23 min 41 s
    Overall bit rate mode : Variable
    Overall bit rate : 8 810 kb/s
    Encoded date : UTC 2019-07-02 09: 14: 42
    Writing application : mkvmerge v35.0.0 (\'All The Love In The World\') 64-bit
    Writing library : libebml v1.3.9 + libmatroska v1.5.2
    Attachments : Peignot Normal.Ttf/TtK6IHAS.ttf/Heinrich Script.ttf/Amienne.ttf/Amienne_0.ttf/Arkona-Regular-Regular.ttf/Arkona-Regular-Regular_0.ttf/CATANEON.TTF/KozMinPr6N-Bold-Toaru.ttf/OptimaLTStd-Bold.ttf/OptimaLTStd-Bold_0.ttf/OptimaLTStd-Italic.otf/Profile-Regular.otf/RotisWTF.ttf
    Video
    ID : 1
    Format : AVC
    Format/Info : Advanced Video Codec
    Format profile : High10@L4.1
    Format settings : CABAC/3 Ref Frames
    Format settings, CABAC : Yes
    Format settings, Reference : 3 frames
    Codec ID : V_MPEG4/ISO/AVC
    Duration : 23 min 41 s
    Bit rate : 6 923 kb/s
    Width : 1 920 pixels
    Height : 1 080 pixels
    Display aspect ratio : 16: 9
    Frame rate mode : Constant
    Frame rate : 23.976 (24000/1001) FPS
    Color space : YUV
    Chroma subsampling : 4: 2: 0
    Bit depth : 10 bits
    Scan type : Progressive
    Bits/(Pixel*Frame) : 0.139
    Stream size : 1.15 GiB (79%)
    Writing library : x264 core 146 r2538 121396c
    Encoding settings : cabac=1/ref=4/deblock=1: -1: -1/analyse=0x3: 0x113/me=umh/subme=11/psy=1/psy_rd=0.90: 0.00/mixed_ref=1/me_range=32/chroma_me=1/trellis=2/8x8dct=1/cqm=0/deadzone=21, 11/fast_pskip=0/chroma_qp_offset=-2/threads=12/lookahead_threads=1/sliced_threads=0/nr=0/decimate=1/interlaced=0/bluray_compat=0/constrained_intra=0/bframes=3/b_pyramid=1/b_adapt=2/b_bias=1/direct=3/weightb=1/open_gop=0/weightp=2/keyint=240/keyint_min=23/scenecut=40/intra_refresh=0/rc_lookahead=50/rc=crf/mbtree=1/crf=16.0/qcomp=0.70/qpmin=10/qpmax=36/qpstep=4/vbv_maxrate=62500/vbv_bufsize=78125/crf_max=0.0/nal_hrd=none/filler=0/ip_ratio=1.40/aq=1: 1.10
    Language : Japanese
    Default : Yes
    Forced : No
    Color range : Limited
    Color primaries : BT.709
    Transfer characteristics : BT.709
    Matrix coefficients : BT.709
    Audio #1
    ID : 2
    Format : AC-3
    Format/Info : Audio Coding 3
    Commercial name : Dolby Digital
    Codec ID : A_AC3
    Duration : 23 min 41 s
    Bit rate mode : Constant
    Bit rate : 192 kb/s
    Channel(s) : 2 channels
    Channel layout : L R
    Sampling rate : 48.0 kHz
    Frame rate : 31.250 FPS (1536 SPF)
    Compression mode : Lossy
    Stream size : 32.5 MiB (2%)
    Title : Cuba77, Nika Lenina, Kiara_Laine (AniDub)
    Language : Russian
    Service kind : Complete Main
    Default : Yes
    Forced : No
    Audio #2
    ID : 3
    Format : AAC LC
    Format/Info : Advanced Audio Codec Low Complexity
    Codec ID : A_AAC-2
    Duration : 23 min 41 s
    Bit rate : 192 kb/s
    Channel(s) : 2 channels
    Channel layout : L R
    Sampling rate : 48.0 kHz
    Frame rate : 46.875 FPS (1024 SPF)
    Compression mode : Lossy
    Stream size : 32.1 MiB (2%)
    Title : EQLizer32Bit, NIKITOS, Karkazik, Oni, Лизавета SHIZA
    Language : Russian
    Default : No
    Forced : No
    Audio #3
    ID : 4
    Format : FLAC
    Format/Info : Free Lossless Audio Codec
    Codec ID : A_FLAC
    Duration : 23 min 41 s
    Bit rate mode : Variable
    Bit rate : 1 492 kb/s
    Channel(s) : 2 channels
    Channel layout : L R
    Sampling rate : 48.0 kHz
    Frame rate : 11.719 FPS (4096 SPF)
    Bit depth : 24 bits
    Compression mode : Lossless
    Stream size : 253 MiB (17%)
    Title : Original
    Writing library : libFLAC 20080709 (UTC 2008-07-09)
    Language : Japanese
    Default : No
    Forced : No
    Text #1
    ID : 5
    Format : ASS
    Codec ID : S_TEXT/ASS
    Codec ID/Info : Advanced Sub Station Alpha
    Duration : 23 min 39 s
    Bit rate : 36 b/s
    Count of elements : 61
    Compression mode : Lossless
    Stream size : 6.38 KiB (0%)
    Title : Forced (Zero, Мария)
    Language : Russian
    Default : Yes
    Forced : No
    Text #2
    ID : 6
    Format : ASS
    Codec ID : S_TEXT/ASS
    Codec ID/Info : Advanced Sub Station Alpha
    Duration : 23 min 39 s
    Bit rate : 168 b/s
    Count of elements : 350
    Compression mode : Lossless
    Stream size : 29.2 KiB (0%)
    Title : Full (Zero Мария Гостюхина)
    Language : Russian
    Default : No
    Forced : No
    Menu
    00: 00: 00.000 : en: Prologue
    00: 03: 08.980 : en: Opening
    00: 04: 39.029 : en: Part-A
    00: 13: 16.004 : en: Part-B
    00: 21: 48.307 : en: Ending
    00: 23: 24.987 : en: Preview
    Время раздачи: С 8: 00 по 18: 00 МСК (до появления первых 3-5 скачавших)
    Понравился релиз? Ставь Оценку и нажми Спасибо
    Это серьёзно меня мотивирует делать подобные релизы.



    Онлайн видео Cross Ange: Tenshi to Ryuu no Rondo


    Cross Ange: Tenshi to Ryuu no Rondo | Cross Ange: Rondo of Angel and Dragon | Крест Анжи. Танец Ангела с Драконом [2014, TV, 25 ep] BDRip 1080p 10-bit raw+rus торрент скачать бесплатно
    Рейтинг →
     (голосов: 1, оценка 3/5, голосовать можно 1 раз )

    Другие торренты по теме:

  • Cross Ange: Tenshi to Ryuu no Rondo | Крест Анжи: Танец ангела с драконом [2014, TV, 1 из 25] HDTV 720p raw
  • Cross Ange: Tenshi to Ryuu no Rondo / Перепутье Анж (2014, TV, 5 из 25) HDTV 720p rus скачать через торрент бесплатно
  • Cross Ange: Tenshi to Ryuu no Rondo | Крест Анжи: Танец ангела с драконом [2014, TV, 3 из 25] BDrip 1080p raw скачать через торрент бесплатно


    • Комментарии (0):

      Информация

      Информация

        Посетители, находящиеся в группе Гости, не могут оставлять комментарии в данной новости.

        ↓ Меню




        Популярное

        Роботы-пожарные / Fire Robo (2016) WEB-DLRip [H.264 / 720p-LQ] (сезон 1, серии 1-26 из 26) [Обновляемая]

        (скачиваний: 6)
        Сергей Матвеев | Полный курс английского языка для лентяев (2016) [PDF]

        (скачиваний: 5)
        Серия книг | Образовательная манга (2010 - 2015) [PDF]

        (скачиваний: 4)
        Жила-была царевна (2015-2019) WEB-DLRip [H.264 / 720p-LQ] (сезон 1, серии 1-18 из 26) [Обновляемая]

        (скачиваний: 3)
        Алена Зюрикова | Дзен в декрете, или Как не сойти с ума от счастья. Режим, сон, воспитание и хорошее настроение (2020) [EPUB]

        (скачиваний: 3)
        Лея Уотерс | Переключение на силу. Как научиться видеть в детях сильные стороны, чтобы помочь им расцвести (2019) [EPUB]

        (скачиваний: 3)
        Александр Нилл | Воспитание свободой. Школа Саммерхилл (2020) [EPUB]

        (скачиваний: 3)
        Алексей Марков | Хулиганская экономика. Финансовые рынки для хулиганов и их родителей (2019) [EPUB]

        (скачиваний: 3)
        Gekijouban KanColle | Kantai Collection Movie | Fleet Girls Collection: Movie Sequence| Коллекционная флотилия на большом экране [2016, Movie] BDrip 720p 10bit raw

        (скачиваний: 3)
        Роберт Кийосаки | Богатый папа, бедный папа для подростков (2014) [PDF, FB2]

        (скачиваний: 3)