ВАЖНО! Сайт скоро заблокируют! Подписывайся на наш канал в Telegram https://t.me/torrentok и получи доступ к торрентам без ограничений!
.
Авторизация | Регистрация
bitok.xyz
Торрент скачать бесплатно Мультфильмы торрент скачать Монстры на каникулах / Hotel Transylvania (2012, 2015, 2018) BDRip [H.264 / 1080p] [Трилогия] торрент скачать бесплатно


    Монстры на каникулах / Hotel Transylvania (2012, 2015, 2018) BDRip [H.264 / 1080p] [Трилогия] торрент скачать бесплатно

    Дата: 15-02-2020, 14:19 | .torrent скачали: 2

    Монстры на каникулах / Hotel Transylvania (2012, 2015, 2018) BDRip [H.264 / 1080p] [Трилогия]Год выпуска: 2012, 2015, 2018
    Производство: США/Columbia
    Жанр: мультфильм, фэнтези, комедия, семейный
    Режиссер: Геннадий Тартаковский

    Описание

    Граф Дракула для себя и своей любимой дочки построил хорошо укрытый от посторонних глаз отель, куда монстры со всего света приезжают отдохнуть от семейных забот, повседневной суеты и, конечно… людей. Но вездесущие американские туристы проникают и сюда.
    Продолжительность: 01: 31: 31/01: 29: 18/01: 37: 23
    Качество видео: BDRip 1080p
    Перевод: Дублированный
    Субтитры: русские, английские
    Видео: AVC/H.264, 1920x1036, ~9416 - 11500 kbps
    Аудио 1: AC3, 6 ch, 640 kbps, Русский (DUB)
    Аудио 2: AC3, 6 ch, 640 kbps, АнглийскийМонстры на каникулах (2012)/Hotel Transylvania (2012) BDRip H.264/1080p
    Производство: США/Columbia
    Жанр: мультфильм, фэнтези, комедия, семейный
    Режиссер: Генндий Тартаковский

    Описание

    Граф Дракула для себя и своей любимой дочки построил хорошо укрытый от посторонних глаз отель, куда монстры со всего света приезжают отдохнуть от семейных забот, повседневной суеты и, конечно… людей. Но вездесущие американские туристы проникают и сюда.

    Возраст: 6+ (зрителям, достигшим 6 лет)
    Рейтинг MPAA: PG (рекомендуется присутствие родителей)
    Продолжительность: 01: 31: 31
    Качество видео: BDRip 1080p
    Перевод: Дублированный
    Субтитры: нет
    Видео: AVC/H.264, 1920x1036, ~11.5 mbps
    Аудио 1: AC3, 6 ch, 640 kbps, Русский (DUB)
    Аудио 2: AC3, 6 ch, 640 kbps, Английский
    Общее
    Уникальный идентификатор : 229165178408068276916877816325990853584 (0xAC679BA15891C9EFBD78E9462B092BD0)
    Полное имя : D: MULTHotel_Transylvania_CollectionHotel.Transylvania.2012.BDRip.1080p.mkv
    Формат : Matroska
    Версия формата : Version 4
    Размер файла : 8, 17 Гбайт
    Продолжительность : 1 ч. 31 м.
    Общий поток : 12, 8 Мбит/сек
    Название фильма : Hotel Transylvania (2012) by HDMaNiAcS
    Дата кодирования : UTC 2020-02-15 09: 21: 07
    Программа кодирования : mkvmerge v8.2.0 (\'World of Adventure\') 64bit
    Библиотека кодирования : libebml v1.3.1 + libmatroska v1.4.2
    Видео
    Идентификатор : 1
    Формат : AVC
    Формат/Информация : Advanced Video Codec
    Профиль формата : High@L4.1
    Настройки формата : CABAC/4 Ref Frames
    Параметр CABAC формата : Да
    Параметр RefFrames формата : 4 кадра
    Идентификатор кодека : V_MPEG4/ISO/AVC
    Продолжительность : 1 ч. 31 м.
    Битрейт : 11, 5 Мбит/сек
    Ширина : 1920 пикселей
    Высота : 1036 пикселей
    Соотношение сторон : 1, 85: 1
    Режим частоты кадров : Постоянный
    Частота кадров : 23, 976 (24000/1001) кадра/сек
    Цветовое пространство : YUV
    Субдискретизация насыщенности : 4: 2: 0
    Битовая глубина : 8 бит
    Тип развёртки : Прогрессивная
    Бит/(Пиксели*Кадры) : 0.241
    Размер потока : 7, 35 Гбайт (90%)
    Заголовок : Hotel Transylvania (2012)
    Библиотека кодирования : x264 core 129 r2230 1cffe9f
    Настройки программы : cabac=1/ref=4/deblock=1: -1: -1/analyse=0x3: 0x113/me=tesa/subme=11/psy=1/psy_rd=1.00: 0.00/mixed_ref=1/me_range=24/chroma_me=1/trellis=2/8x8dct=1/cqm=0/deadzone=21, 11/fast_pskip=1/chroma_qp_offset=-2/threads=12/lookahead_threads=2/sliced_threads=0/nr=0/decimate=1/interlaced=0/bluray_compat=0/constrained_intra=0/bframes=8/b_pyramid=2/b_adapt=2/b_bias=0/direct=3/weightb=1/open_gop=0/weightp=2/keyint=240/keyint_min=23/scenecut=40/intra_refresh=0/rc=2pass/mbtree=0/bitrate=11500/ratetol=1.0/qcomp=0.60/qpmin=10/qpmax=69/qpstep=4/cplxblur=20.0/qblur=0.5/ip_ratio=1.40/pb_ratio=1.30/aq=2: 0.90
    Язык : English
    Default : Да
    Forced : Нет
    Аудио #1
    Идентификатор : 2
    Формат : AC-3
    Формат/Информация : Audio Coding 3
    Коммерческое название : Dolby Digital
    Идентификатор кодека : A_AC3
    Продолжительность : 1 ч. 31 м.
    Вид битрейта : Постоянный
    Битрейт : 640 Кбит/сек
    Каналы : 6 каналов
    ChannelLayout : L R C LFE Ls Rs
    Частота : 48, 0 КГц
    Частота кадров : 31, 250 кадров/сек (1536 SPF)
    Метод сжатия : С потерями
    Размер потока : 419 Мбайт (5%)
    Заголовок : AC3/5.1 ch/640 kbps/Русский дубляж BD CEE
    Язык : Russian
    ServiceKind/String : Complete Main
    Default : Да
    Forced : Нет
    Аудио #2
    Идентификатор : 3
    Формат : AC-3
    Формат/Информация : Audio Coding 3
    Коммерческое название : Dolby Digital
    Идентификатор кодека : A_AC3
    Продолжительность : 1 ч. 31 м.
    Вид битрейта : Постоянный
    Битрейт : 640 Кбит/сек
    Каналы : 6 каналов
    ChannelLayout : L R C LFE Ls Rs
    Частота : 48, 0 КГц
    Частота кадров : 31, 250 кадров/сек (1536 SPF)
    Метод сжатия : С потерями
    Размер потока : 419 Мбайт (5%)
    Заголовок : AC3/5.1 ch/640 kbps/Английский original BD CEE
    Язык : English
    ServiceKind/String : Complete Main
    Default : Нет
    Forced : Нет
    Текст #1
    Идентификатор : 4
    Формат : UTF-8
    Идентификатор кодека : S_TEXT/UTF8
    Идентификатор кодека/Информация : UTF-8 Plain Text
    Продолжительность : 1 ч. 24 м.
    Битрейт : 94 бит/сек
    ElementCount : 1218
    Размер потока : 58, 4 Кбайт (0%)
    Заголовок : Full BD
    Язык : Russian
    Default : Нет
    Forced : Нет
    Текст #2
    Идентификатор : 5
    Формат : UTF-8
    Идентификатор кодека : S_TEXT/UTF8
    Идентификатор кодека/Информация : UTF-8 Plain Text
    Продолжительность : 1 ч. 24 м.
    Битрейт : 64 бит/сек
    ElementCount : 1288
    Размер потока : 40, 1 Кбайт (0%)
    Заголовок : Full BD
    Язык : English
    Default : Нет
    Forced : Нет
    Меню
    00: 00: 00.000 : en: 00: 00: 00.000
    00: 04: 49.372 : en: 00: 04: 49.372
    00: 10: 23.790 : en: 00: 10: 23.790
    00: 14: 19.275 : en: 00: 14: 19.275
    00: 19: 25.498 : en: 00: 19: 25.498
    00: 25: 11.218 : en: 00: 25: 11.218
    00: 29: 49.413 : en: 00: 29: 49.413
    00: 35: 50.815 : en: 00: 35: 50.815
    00: 41: 11.636 : en: 00: 41: 11.636
    00: 46: 29.537 : en: 00: 46: 29.537
    00: 53: 50.227 : en: 00: 53: 50.227
    00: 57: 44.795 : en: 00: 57: 44.795
    01: 04: 15.268 : en: 01: 04: 15.268
    01: 08: 48.499 : en: 01: 08: 48.499
    01: 15: 20.599 : en: 01: 15: 20.599
    01: 18: 50.643 : en: 01: 18: 50.643

    Скриншоты для ознакомления



    Все одноименные релизы в Клубе Монстры на каникулах 2 (2015)/Hotel Transylvania 2 (2015) BDRip H.264/1080p
    Производство: США/Columbia
    Жанр: мультфильм, фэнтези, комедия, семейный
    Режиссер: Генндий Тартаковский

    Описание

    Граф Дракула выдает свою очаровательную дочь замуж за парня из мира людей, и у молодой смешанной пары рождается сын. Станет ли этот ребенок человеком или вампиром?

    Возраст: 6+ (зрителям, достигшим 6 лет)
    Рейтинг MPAA: PG (рекомендуется присутствие родителей)
    Продолжительность: 01: 29: 18
    Качество видео: BDRip 1080p
    Перевод: Дублированный
    Субтитры: русские, английские
    Видео: AVC/H.264, 1920x1036, ~9416 kbps
    Аудио 1: AC3, 6 ch, 640 kbps, Русский (DUB)
    Аудио 2: AC3, 6 ch, 640 kbps, Английский
    Общее
    Уникальный идентификатор : 245166033642569239522224407471775212513 (0xB87142B3A8D89D4597F50A5D2A62E3E1)
    Полное имя : D: MULTHotel_Transylvania_CollectionHotel.Transylvania.2.2015 BDRip.1080p.mkv
    Формат : Matroska
    Версия формата : Version 4
    Размер файла : 6, 67 Гбайт
    Продолжительность : 1 ч. 29 м.
    Общий поток : 10, 7 Мбит/сек
    Название фильма : Hotel Transylvania (2012) by HDMaNiAcS
    Дата кодирования : UTC 2020-02-15 09: 33: 08
    Программа кодирования : mkvmerge v8.2.0 (\'World of Adventure\') 64bit
    Библиотека кодирования : libebml v1.3.1 + libmatroska v1.4.2
    Обложка : Yes
    Attachments : cover.jpg
    Видео
    Идентификатор : 1
    Формат : AVC
    Формат/Информация : Advanced Video Codec
    Профиль формата : High@L4.1
    Настройки формата : CABAC/4 Ref Frames
    Параметр CABAC формата : Да
    Параметр RefFrames формата : 4 кадра
    Идентификатор кодека : V_MPEG4/ISO/AVC
    Продолжительность : 1 ч. 29 м.
    Битрейт : 9416 Кбит/сек
    Ширина : 1920 пикселей
    Высота : 1036 пикселей
    Соотношение сторон : 1, 85: 1
    Режим частоты кадров : Постоянный
    Частота кадров : 23, 976 (24000/1001) кадра/сек
    Цветовое пространство : YUV
    Субдискретизация насыщенности : 4: 2: 0
    Битовая глубина : 8 бит
    Тип развёртки : Прогрессивная
    Бит/(Пиксели*Кадры) : 0.197
    Размер потока : 5, 87 Гбайт (88%)
    Библиотека кодирования : x264 core 142 r2431+42 c69a006 tMod 8-bit@all X86_64
    Настройки программы : cabac=1/ref=4/deblock=1: -1: -1/analyse=0x3: 0x133/me=umh/subme=11/psy=1/fade_compensate=0.00/psy_rd=0.40: 0.00/mixed_ref=1/me_range=32/chroma_me=1/trellis=2/8x8dct=1/cqm=0/deadzone=21, 11/fast_pskip=0/chroma_qp_offset=-2/threads=12/lookahead_threads=2/sliced_threads=0/nr=0/decimate=0/interlaced=0/bluray_compat=0/constrained_intra=0/fgo=0/bframes=8/b_pyramid=2/b_adapt=2/b_bias=0/direct=3/weightb=1/open_gop=0/weightp=2/keyint=240/keyint_min=23/scenecut=40/intra_refresh=0/rc_lookahead=60/rc=crf/mbtree=0/crf=15.0000/qcomp=0.60/qpmin=0: 0: 0/qpmax=69: 69: 69/qpstep=4/vbv_maxrate=40000/vbv_bufsize=30000/crf_max=0.0/nal_hrd=none/filler=0/ip_ratio=1.40/pb_ratio=1.30/aq=1: 0.60/aq-sensitivity=10.00/aq-factor=1.00: 1.00: 1.00/aq2=0/aq3=0
    Язык : English
    Default : Да
    Forced : Нет
    Аудио #1
    Идентификатор : 2
    Формат : AC-3
    Формат/Информация : Audio Coding 3
    Коммерческое название : Dolby Digital
    Идентификатор кодека : A_AC3
    Продолжительность : 1 ч. 29 м.
    Вид битрейта : Постоянный
    Битрейт : 640 Кбит/сек
    Каналы : 6 каналов
    ChannelLayout : L R C LFE Ls Rs
    Частота : 48, 0 КГц
    Частота кадров : 31, 250 кадров/сек (1536 SPF)
    Метод сжатия : С потерями
    Размер потока : 409 Мбайт (6%)
    Заголовок : RUS
    Язык : Russian
    ServiceKind/String : Complete Main
    Default : Да
    Forced : Нет
    Аудио #2
    Идентификатор : 3
    Формат : AC-3
    Формат/Информация : Audio Coding 3
    Коммерческое название : Dolby Digital
    Идентификатор кодека : A_AC3
    Продолжительность : 1 ч. 29 м.
    Вид битрейта : Постоянный
    Битрейт : 640 Кбит/сек
    Каналы : 6 каналов
    ChannelLayout : L R C LFE Ls Rs
    Частота : 48, 0 КГц
    Частота кадров : 31, 250 кадров/сек (1536 SPF)
    Метод сжатия : С потерями
    Размер потока : 409 Мбайт (6%)
    Заголовок : ENG
    Язык : English
    ServiceKind/String : Complete Main
    Default : Нет
    Forced : Нет
    Текст #1
    Идентификатор : 4
    Формат : UTF-8
    Идентификатор кодека : S_TEXT/UTF8
    Идентификатор кодека/Информация : UTF-8 Plain Text
    Продолжительность : 1 ч. 19 м.
    Битрейт : 0 бит/сек
    ElementCount : 6
    Размер потока : 179 байт (0%)
    Язык : Russian
    Default : Да
    Forced : Да
    Текст #2
    Идентификатор : 5
    Формат : UTF-8
    Идентификатор кодека : S_TEXT/UTF8
    Идентификатор кодека/Информация : UTF-8 Plain Text
    Продолжительность : 1 ч. 19 м.
    Битрейт : 118 бит/сек
    ElementCount : 1107
    Размер потока : 69, 2 Кбайт (0%)
    Язык : Russian
    Default : Нет
    Forced : Нет
    Текст #3
    Идентификатор : 6
    Формат : UTF-8
    Идентификатор кодека : S_TEXT/UTF8
    Идентификатор кодека/Информация : UTF-8 Plain Text
    Продолжительность : 1 ч. 19 м.
    Битрейт : 75 бит/сек
    ElementCount : 1311
    Размер потока : 43, 7 Кбайт (0%)
    Язык : English
    Default : Нет
    Forced : Нет
    Текст #4
    Идентификатор : 7
    Формат : UTF-8
    Идентификатор кодека : S_TEXT/UTF8
    Идентификатор кодека/Информация : UTF-8 Plain Text
    Продолжительность : 1 ч. 18 м.
    Битрейт : 67 бит/сек
    ElementCount : 1075
    Размер потока : 39, 0 Кбайт (0%)
    Язык : English
    Default : Нет
    Forced : Нет
    Меню
    00: 00: 00.000 : en: Chapter 01
    00: 05: 46.471 : en: Chapter 02
    00: 09: 17.640 : en: Chapter 03
    00: 13: 09.705 : en: Chapter 04
    00: 19: 29.126 : en: Chapter 05
    00: 22: 42.569 : en: Chapter 06
    00: 30: 05.303 : en: Chapter 07
    00: 36: 12.712 : en: Chapter 08
    00: 40: 00.981 : en: Chapter 09
    00: 45: 54.376 : en: Chapter 10
    00: 51: 22.454 : en: Chapter 11
    00: 56: 54.911 : en: Chapter 12
    01: 04: 01.921 : en: Chapter 13
    01: 08: 32.817 : en: Chapter 14
    01: 13: 29.405 : en: Chapter 15
    01: 18: 35.877 : en: Chapter 16

    Скриншоты для ознакомления



    Все одноименные релизы в Клубе Монстры на каникулах 3: Море зовёт (2018)/Hotel Transylvania 3: Summer Vacation (2018) BDRip H.264/1080p
    Производство: США/Columbia
    Жанр: мультфильм, фэнтези, комедия, семейный
    Режиссер: Генндий Тартаковский

    Описание

    На этот раз Дракула вместе со своими друзьями отправляется в круиз на шикарном лайнере. Развлечения там на любой вкус: от монстробаскетбола и экзотических экскурсий, до лунных ванн. Неожиданно Дракула влюбляется в капитана корабля — загадочную и прекрасную Эрику, и его дочка Мэвис понимает, что поездка может превратиться в кошмар: ведь Эрика хранит ужасный секрет, который ставит под угрозу существование всех монстров!

    Возраст: 6+ (зрителям, достигшим 6 лет)
    Рейтинг MPAA: PG (рекомендуется присутствие родителей)
    Продолжительность: 01: 37: 23
    Качество видео: BDRip 1080p
    Перевод: Дублированный
    Субтитры: русские, английские
    Видео: AVC/H.264, 1920x1036, ~9485 kbps
    Аудио 1: AC3, 6 ch, 640 kbps, Русский (DUB)
    Аудио 2: AC3, 6 ch, 640 kbps, Английский
    Общее
    Уникальный идентификатор : 222270501774253149448564974795568369467 (0xA737BDD3BCAF8B778594DEFD9C06CF3B)
    Полное имя : D: MULTHotel_Transylvania_CollectionHotel.Transylvania.3.2018.BDRip.1080p.mkv
    Формат : Matroska
    Версия формата : Version 4
    Размер файла : 7, 32 Гбайт
    Продолжительность : 1 ч. 37 м.
    Общий поток : 10, 8 Мбит/сек
    Название фильма : Hotel Transylvania (2012) by HDMaNiAcS
    Дата кодирования : UTC 2020-02-15 09: 42: 29
    Программа кодирования : mkvmerge v8.2.0 (\'World of Adventure\') 64bit
    Библиотека кодирования : libebml v1.3.1 + libmatroska v1.4.2
    Видео
    Идентификатор : 1
    Формат : AVC
    Формат/Информация : Advanced Video Codec
    Профиль формата : High@L4.1
    Настройки формата : CABAC/4 Ref Frames
    Параметр CABAC формата : Да
    Параметр RefFrames формата : 4 кадра
    Идентификатор кодека : V_MPEG4/ISO/AVC
    Продолжительность : 1 ч. 37 м.
    Битрейт : 9485 Кбит/сек
    Ширина : 1920 пикселей
    Высота : 1036 пикселей
    Соотношение сторон : 1, 85: 1
    Режим частоты кадров : Постоянный
    Частота кадров : 23, 976 (24000/1001) кадра/сек
    Цветовое пространство : YUV
    Субдискретизация насыщенности : 4: 2: 0
    Битовая глубина : 8 бит
    Тип развёртки : Прогрессивная
    Бит/(Пиксели*Кадры) : 0.199
    Размер потока : 6, 45 Гбайт (88%)
    Заголовок : potroks
    Библиотека кодирования : x264 core 157 r2901M 7d0ff22
    Настройки программы : cabac=1/ref=4/deblock=1: -1: -1/analyse=0x3: 0x113/me=umh/subme=11/psy=1/psy_rd=0.98: 0.00/mixed_ref=1/me_range=48/chroma_me=1/trellis=2/8x8dct=1/cqm=0/deadzone=21, 11/fast_pskip=0/chroma_qp_offset=-2/threads=9/lookahead_threads=2/sliced_threads=0/nr=0/decimate=0/interlaced=0/bluray_compat=0/constrained_intra=0/bframes=12/b_pyramid=2/b_adapt=2/b_bias=0/direct=3/weightb=1/open_gop=0/weightp=2/keyint=240/keyint_min=23/scenecut=40/intra_refresh=0/rc_lookahead=100/rc=2pass/mbtree=0/bitrate=9485/ratetol=1.0/qcomp=0.70/qpmin=0/qpmax=69/qpstep=4/cplxblur=20.0/qblur=0.5/vbv_maxrate=50000/vbv_bufsize=50000/nal_hrd=none/filler=0/ip_ratio=1.40/pb_ratio=1.30/aq=1: 0.70
    Язык : English
    Default : Да
    Forced : Нет
    Аудио #1
    Идентификатор : 2
    Формат : AC-3
    Формат/Информация : Audio Coding 3
    Коммерческое название : Dolby Digital
    Идентификатор кодека : A_AC3
    Продолжительность : 1 ч. 37 м.
    Вид битрейта : Постоянный
    Битрейт : 640 Кбит/сек
    Каналы : 6 каналов
    ChannelLayout : L R C LFE Ls Rs
    Частота : 48, 0 КГц
    Частота кадров : 31, 250 кадров/сек (1536 SPF)
    Метод сжатия : С потерями
    Размер потока : 446 Мбайт (6%)
    Заголовок : Dub | DD 5.1 @ 640 kbps - Blu-ray CEE
    Язык : Russian
    ServiceKind/String : Complete Main
    Default : Да
    Forced : Да
    Аудио #2
    Идентификатор : 3
    Формат : AC-3
    Формат/Информация : Audio Coding 3
    Коммерческое название : Dolby Digital
    Идентификатор кодека : A_AC3
    Продолжительность : 1 ч. 37 м.
    Вид битрейта : Постоянный
    Битрейт : 640 Кбит/сек
    Каналы : 6 каналов
    ChannelLayout : L R C LFE Ls Rs
    Частота : 48, 0 КГц
    Частота кадров : 31, 250 кадров/сек (1536 SPF)
    Метод сжатия : С потерями
    Размер потока : 446 Мбайт (6%)
    Заголовок : Original | DD 5.1 @ 640 kbps
    Язык : English
    ServiceKind/String : Complete Main
    Default : Нет
    Forced : Нет
    Текст #1
    Идентификатор : 4
    Формат : UTF-8
    Идентификатор кодека : S_TEXT/UTF8
    Идентификатор кодека/Информация : UTF-8 Plain Text
    Продолжительность : 1 ч. 36 м.
    Битрейт : 0 бит/сек
    ElementCount : 5
    Размер потока : 171 байт (0%)
    Заголовок : Forced
    Язык : Russian
    Default : Да
    Forced : Да
    Текст #2
    Идентификатор : 5
    Формат : UTF-8
    Идентификатор кодека : S_TEXT/UTF8
    Идентификатор кодека/Информация : UTF-8 Plain Text
    Продолжительность : 1 ч. 36 м.
    Битрейт : 76 бит/сек
    ElementCount : 1118
    Размер потока : 54, 4 Кбайт (0%)
    Заголовок : iTunes
    Язык : Russian
    Default : Нет
    Forced : Нет
    Текст #3
    Идентификатор : 6
    Формат : UTF-8
    Идентификатор кодека : S_TEXT/UTF8
    Идентификатор кодека/Информация : UTF-8 Plain Text
    Продолжительность : 1 ч. 26 м.
    Битрейт : 48 бит/сек
    ElementCount : 1168
    Размер потока : 30, 7 Кбайт (0%)
    Заголовок : Full
    Язык : English
    Default : Нет
    Forced : Нет
    Текст #4
    Идентификатор : 7
    Формат : UTF-8
    Идентификатор кодека : S_TEXT/UTF8
    Идентификатор кодека/Информация : UTF-8 Plain Text
    Продолжительность : 1 ч. 30 м.
    Битрейт : 67 бит/сек
    ElementCount : 1650
    Размер потока : 44, 7 Кбайт (0%)
    Заголовок : SDH
    Язык : English
    Default : Нет
    Forced : Нет
    Текст #5
    Идентификатор : 8
    Формат : UTF-8
    Идентификатор кодека : S_TEXT/UTF8
    Идентификатор кодека/Информация : UTF-8 Plain Text
    Продолжительность : 1 ч. 30 м.
    Битрейт : 125 бит/сек
    ElementCount : 1650
    Размер потока : 83, 3 Кбайт (0%)
    Заголовок : SDH-Colored
    Язык : English
    Default : Нет
    Forced : Нет
    Меню #1
    00: 00: 00.000 : en: Chapter 01
    00: 04: 28.935 : en: Chapter 02
    00: 09: 34.823 : en: Chapter 03
    00: 16: 02.043 : en: Chapter 04
    00: 20: 03.076 : en: Chapter 05
    00: 24: 34.931 : en: Chapter 06
    00: 31: 12.537 : en: Chapter 07
    00: 36: 49.206 : en: Chapter 08
    00: 44: 04.724 : en: Chapter 09
    00: 49: 57.702 : en: Chapter 10
    00: 54: 49.743 : en: Chapter 11
    01: 00: 34.880 : en: Chapter 12
    01: 06: 12.009 : en: Chapter 13
    01: 10: 32.269 : en: Chapter 14
    01: 13: 46.380 : en: Chapter 15
    01: 24: 56.548 : en: Chapter 16
    Меню #2
    00: 00: 00.000 : en: Chapter 01
    00: 04: 28.935 : en: Chapter 02
    00: 09: 34.823 : en: Chapter 03
    00: 16: 02.043 : en: Chapter 04
    00: 20: 03.076 : en: Chapter 05
    00: 24: 34.931 : en: Chapter 06
    00: 31: 12.537 : en: Chapter 07
    00: 36: 49.206 : en: Chapter 08
    00: 44: 04.724 : en: Chapter 09
    00: 49: 57.702 : en: Chapter 10
    00: 54: 49.743 : en: Chapter 11
    01: 00: 34.880 : en: Chapter 12
    01: 06: 12.009 : en: Chapter 13
    01: 10: 32.269 : en: Chapter 14
    01: 13: 46.380 : en: Chapter 15
    01: 24: 56.548 : en: Chapter 16

    Скриншоты для ознакомления



    Все одноименные релизы в Клубе
    Скриншоты для ознакомления



    Все одноименные релизы в Клубе
    Время раздачи: c 5 до 19 мск (до появления первых 3-5 скачавших)
    Год выпуска: 2012, 2015, 2018
    Производство: США/Columbia
    Жанр: мультфильм, фэнтези, комедия, семейный
    Режиссер: Геннадий Тартаковский

    Описание

    Граф Дракула для себя и своей любимой дочки построил хорошо укрытый от посторонних глаз отель, куда монстры со всего света приезжают отдохнуть от семейных забот, повседневной суеты и, конечно… людей. Но вездесущие американские туристы проникают и сюда.
    Продолжительность: 01: 31: 31/01: 29: 18/01: 37: 23
    Качество видео: BDRip 1080p
    Перевод: Дублированный
    Субтитры: русские, английские


    Онлайн видео Монстры на каникулах


    Монстры на каникулах / Hotel Transylvania (2012, 2015, 2018) BDRip [H.264 / 1080p] [Трилогия] торрент скачать бесплатно
    Рейтинг →
     (голосов: 1, оценка 5/5, голосовать можно 1 раз )

    Другие торренты по теме:

  • Монстры на каникулах / Hotel Transylvania (2012) BDRip [H.264 / 1080p-LQ] скачать через торрент бесплатно
  • Монстры на каникулах 2 / Hotel Transylvania 2 (2015) CamRip скачать через торрент бесплатно
  • Монстры на каникулах 2 / Hotel Transylvania 2 (2015) CamRip скачать через торрент бесплатно
  • Монстры на каникулах 2 / Hotel Transylvania 2 (2015) WEBRip [звук с CamRip] скачать через торрент бесплатно
  • Монстры на каникулах 2 / Hotel Transylvania 2 (2015) HDTV [H.264 / 720p-LQ] [звук с CAMRip] скачать через торрент бесплатно
  • Монстры на каникулах 2 / Hotel Transylvania 2 (2015) HDTV [H.264 / 1080p-LQ] [звук с CAMRip] скачать через торрент бесплатно
  • Монстры на каникулах 2 / Hotel Transylvania 2 (2015) WEBRip [H.264 / 720p-LQ] [Line] скачать через торрент бесплатно
  • Монстры на каникулах 2 / Hotel Transylvania 2 (2015) HDTVRip [H.264 / 1080p-LQ] [Line] скачать через торрент бесплатно


    • Комментарии (0):

      Информация

      Информация

        Посетители, находящиеся в группе Гости, не могут оставлять комментарии в данной новости.

        ↓ Меню




        Популярное

        Роботы-пожарные / Fire Robo (2016) WEB-DLRip [H.264 / 720p-LQ] (сезон 1, серии 1-26 из 26) [Обновляемая]

        (скачиваний: 6)
        Сергей Матвеев | Полный курс английского языка для лентяев (2016) [PDF]

        (скачиваний: 5)
        Серия книг | Образовательная манга (2010 - 2015) [PDF]

        (скачиваний: 4)
        Жила-была царевна (2015-2019) WEB-DLRip [H.264 / 720p-LQ] (сезон 1, серии 1-18 из 26) [Обновляемая]

        (скачиваний: 3)
        Алена Зюрикова | Дзен в декрете, или Как не сойти с ума от счастья. Режим, сон, воспитание и хорошее настроение (2020) [EPUB]

        (скачиваний: 3)
        Лея Уотерс | Переключение на силу. Как научиться видеть в детях сильные стороны, чтобы помочь им расцвести (2019) [EPUB]

        (скачиваний: 3)
        Александр Нилл | Воспитание свободой. Школа Саммерхилл (2020) [EPUB]

        (скачиваний: 3)
        Алексей Марков | Хулиганская экономика. Финансовые рынки для хулиганов и их родителей (2019) [EPUB]

        (скачиваний: 3)
        Gekijouban KanColle | Kantai Collection Movie | Fleet Girls Collection: Movie Sequence| Коллекционная флотилия на большом экране [2016, Movie] BDrip 720p 10bit raw

        (скачиваний: 3)
        Роберт Кийосаки | Богатый папа, бедный папа для подростков (2014) [PDF, FB2]

        (скачиваний: 3)