ВАЖНО! Сайт скоро заблокируют! Подписывайся на наш канал в Telegram https://t.me/torrentok и получи доступ к торрентам без ограничений!
.
Авторизация | Регистрация
bitok.xyz
Торрент скачать бесплатно Мультфильмы торрент скачать Холодное сердце 2 / Frozen II (2019) HDRip торрент скачать бесплатно


    Холодное сердце 2 / Frozen II (2019) HDRip торрент скачать бесплатно

    Дата: 15-02-2020, 14:19 | .torrent скачали: 0

    Холодное сердце 2 / Frozen II (2019) HDRipПроизводство: США, Walt Disney
    Жанр: мультфильм, мюзикл, фэнтези, комедия, приключения, семейный
    Режиссер: Крис Бак, Дженнифер Ли

    Описание

    Анна, Эльза, Кристоф, его верный олень Свен и никогда не унывающий снеговик Олаф должны будут покинуть уютное королевство Эренделл и отправиться ещё дальше на север, в путешествие, которое приведет их к истокам древних легенд и поможет раскрыть тайны, касающиеся прошлого их родной страны.

    Возраст: 6+ (зрителям, достигшим 6 лет)
    Рейтинг MPAA: PG (рекомендуется присутствие родителей)
    Дата мировой премьеры: 7 ноября 2019
    Дата российской премьеры: 28 ноября 2019
    Продолжительность: 01: 43: 14
    Качество видео: HDRip
    Перевод: Дублированный (iTunes)
    Субтитры: русские, английские - (отдельными файлами)
    Видео: XviD, 720x304, 2169 Kbps
    Аудио #1: AC-3, 6 ch, 384 Kbps - русский (DUB iTunes)
    Аудио #2: AC-3, 6 ch, 448 Kbps - английский
    Общее
    Полное имя : G: Холодное сердце 2_2019_HDRipХолодное сердце 2_2019_HDRip.avi
    Формат : AVI
    Формат/Информация : Audio Video Interleave
    Профиль формата : OpenDML
    Размер файла : 2, 18 Гбайт
    Продолжительность : 1 ч. 43 м.
    Общий поток : 3019 Кбит/сек
    Название фильма : Холодное сердце 2_2019_HDRip
    Программа кодирования : VirtualDubMod 1.5.10.3 | (build 2550/release)
    Авторское право : порошков
    Видео
    Идентификатор : 0
    Формат : MPEG-4 Visual
    Профиль формата : Advanced Simple@L5
    Параметр BVOP формата : 1
    Параметр QPel формата : Нет
    Параметр GMC формата : Без точки перехода
    Параметр матрицы формата : Выборочная
    Идентификатор кодека : XVID
    Идентификатор кодека/Подсказка : XviD
    Продолжительность : 1 ч. 43 м.
    Битрейт : 2169 Кбит/сек
    Ширина : 720 пикселей
    Высота : 304 пикселя
    Соотношение сторон : 2, 35: 1
    Частота кадров : 23, 976 (24000/1001) кадра/сек
    Цветовое пространство : YUV
    Субдискретизация насыщенности : 4: 2: 0
    Битовая глубина : 8 бит
    Тип развёртки : Прогрессивная
    Метод сжатия : С потерями
    Бит/(Пиксели*Кадры) : 0.413
    Размер потока : 1, 56 Гбайт (72%)
    Библиотека кодирования : XviD 73
    Аудио #1
    Идентификатор : 1
    Формат : AC-3
    Формат/Информация : Audio Coding 3
    Расширение режима : CM (complete main)
    Параметр Endianness формата : Big
    Идентификатор кодека : 2000
    Продолжительность : 1 ч. 43 м.
    Вид битрейта : Постоянный
    Битрейт : 384 Кбит/сек
    Каналы : 6 каналов
    Расположение каналов : Front: L C R, Side: L R, LFE
    Частота : 48, 0 КГц
    Частота кадров : 31, 250 кадров/сек (1536 spf)
    Битовая глубина : 16 бит
    Метод сжатия : С потерями
    Размер потока : 283 Мбайт (13%)
    Выравнивание : Разделение по промежуткам
    Продолжительность промежутка : 42 мс. (1, 00 видеокадр)
    Время предзагрузки промежутка : 500 мс.
    Заголовок : rus
    Аудио #2
    Идентификатор : 2
    Формат : AC-3
    Формат/Информация : Audio Coding 3
    Расширение режима : CM (complete main)
    Параметр Endianness формата : Big
    Идентификатор кодека : 2000
    Продолжительность : 1 ч. 43 м.
    Вид битрейта : Постоянный
    Битрейт : 448 Кбит/сек
    Каналы : 6 каналов
    Расположение каналов : Front: L C R, Side: L R, LFE
    Частота : 48, 0 КГц
    Частота кадров : 31, 250 кадров/сек (1536 spf)
    Битовая глубина : 16 бит
    Метод сжатия : С потерями
    Размер потока : 331 Мбайт (15%)
    Выравнивание : Разделение по промежуткам
    Продолжительность промежутка : 42 мс. (1, 00 видеокадр)
    Время предзагрузки промежутка : 500 мс.
    Заголовок : eng
    Текст1 en
    Формат : SubRip
    Метод сжатия : Без потерь
    Текст2 en
    Формат : SubRip
    Метод сжатия : Без потерь
    Текст3 ru
    Формат : SubRip
    Метод сжатия : Без потерь
    Текст4 ru
    Формат : SubRip
    Метод сжатия : Без потерь

    Скриншоты для ознакомления



    Все одноименные релизы в Клубе
    Время раздачи: c 11: 00 до 01: 00 (до появления первых 3-5 скачавших)

    Онлайн видео Холодное сердце 2


    Холодное сердце 2 / Frozen II (2019) HDRip торрент скачать бесплатно
    Рейтинг →
     (голосов: 1, оценка 3/5, голосовать можно 1 раз )

    Другие торренты по теме:

  • Frozen. Free Fall / Холодное Сердце. Звездопад 2.6 [Ru] скачать через торрент бесплатно
  • Холодное сердце (2016) HDTV [H.264 / 1080i] (серии 1-2 из 2)
  • Холодное сердце (2016) HDTVRip [H.264] (серии 1-2 из 2)
  • Холодное сердце / Frozen (2013) BDRip [H.264 / 1080p] [handmade 16:9]
  • Дмитрий Браславский | Мерцание эльфийского портала, Холодное сердце Далрока [2 книги] (2012-2015) [DOC, PDF]
  • Холодное сердце / Das kalte Herz (2016) HDRip [AD]
  • Холодное сердце / Das Kalte Herz (1950) HDRip [H.264] [AVO]
  • Yuletide Legends 2: Frozen Hearts / Святочные истории 2: Холодное сердце (2017) [Ru] (1.0) Unofficial [Collectors Edition / Коллекционное издание]


    • Комментарии (0):

      Информация

      Информация

        Посетители, находящиеся в группе Гости, не могут оставлять комментарии в данной новости.

        ↓ Меню




        Популярное

        Металионы / Metalions (2018-2019) WEB-DLRip [H.264 / 720p-LQ] (сезон 1, серии 1-52 из 52) [Обновляемая]

        (скачиваний: 11)
        Фиксики против Кработов (2019) WEB-DL [H.264 / 1080p-LQ]

        (скачиваний: 10)
        Роботы-пожарные / Fire Robo (2016) WEB-DLRip [H.264 / 720p-LQ] (сезон 1, серии 1-26 из 26) [Обновляемая]

        (скачиваний: 8)
        Фиксики против Кработов (2019) WEB-DLRip

        (скачиваний: 7)
        Жила-была царевна (2015-2019) WEB-DLRip [H.264 / 720p-LQ] (сезон 1, серии 1-18 из 26) [Обновляемая]

        (скачиваний: 7)
        Лея Уотерс | Переключение на силу. Как научиться видеть в детях сильные стороны, чтобы помочь им расцвести (2019) [EPUB]

        (скачиваний: 5)
        Kaze no Na wa Amnesia / A Wind Named Amnesia / Ветер амнезии [1990, MV] DVDRip raw

        (скачиваний: 5)
        Канакина В. П., Горецкий В. Г. Электронное приложение к учебнику «Русский язык», 2 класс (2012) [ISO] скачать через торрент бесплатно

        (скачиваний: 5)
        Александр Нилл | Воспитание свободой. Школа Саммерхилл (2020) [EPUB]

        (скачиваний: 5)
        Роберт Кийосаки | Богатый папа, бедный папа для подростков (2014) [PDF, FB2]

        (скачиваний: 5)