Подписывайся на наш канал в Telegram https://t.me/torrentok и получи доступ к торрентам без ограничений!
.
Авторизация | Регистрация
bitok.xyz
Торрент скачать бесплатно Мультфильмы торрент скачать Конь БоДжек / BoJack Horseman (2014-2020) WEB-DLRip (сезон 1-6, серии 1-77 из 77) NewStudio торрент скачать бесплатно


    Конь БоДжек / BoJack Horseman (2014-2020) WEB-DLRip (сезон 1-6, серии 1-77 из 77) NewStudio торрент скачать бесплатно

    Дата: 15-02-2020, 14:19 | .torrent скачали: 0

    Конь БоДжек / BoJack Horseman (2014-2020) WEB-DLRip (сезон 1-6, серии 1-77 из 77) NewStudioПроизводство: США | Tornante Company, NetFlix, ShadowMachine Films
    Жанр: мультфильм, драма, комедия, для взрослых
    Режиссер: Эми Уинфри, JC Gonzalez, Аарон Лонг

    Описание

    Действие происходит в мире населенном антропоморфными животными и людьми. Большая часть сюжета происходит в Лос-Анджелесе. БоДжек — звезда ситуационной комедии, популярной в конце 80-х — начале 90-х годов, на момент времени происходящего в сериале, БоДжек переживает кризис среднего возраста. В попытках вернуть былую популярность и любовь публики, БоДжек пытается написать автобиографию. Но не справляется с этим ввиду собственной лени, после уговоров агента и издателя, он нанимает писателя Диану Нгуен, которая проводит с ним много времени интервьюируя его, узнавая о его прошлом и работе в сериале. Впоследствии между ними возникает симпатия. Сюжет подается нам вперемешку с воспоминаниями БоДжека и его нынешним положением.

    Возраст: 18+ (зрителям, достигшим 18 лет. запрещено для детей)
    Продолжительность: ~00: 25: 00 серия
    Качество видео: WEB-DLRip
    Перевод: Многоголосый профессиональный (NewStudio)Без цензуры!
    Субтитры: Отсутствуют
    Видео: Xvid, 720x400 (16: 9), ~1250 kbps
    Аудио 1: MP3, 2 ch, 128 kbps - Русский
    Аудио 2: MP3, 2 ch, 128 kbps - Английский
    General
    Complete name : D: BoJack HorsemanSeason 1Bojack.Horseman.s01e07.avi
    Format : AVI
    Format/Info : Audio Video Interleave
    File size : 275 MiB
    Duration : 25 min 17 s
    Overall bit rate : 1 519 kb/s
    Writing application : VirtualDubMod 1.5.10.2 (build 2540/release)
    Writing library : VirtualDubMod build 2540/release
    Video
    ID : 0
    Format : MPEG-4 Visual
    Format profile : Advanced Simple@L5
    Format settings : BVOP1/Custom Matrix
    Format settings, BVOP : 1
    Format settings, QPel : No
    Format settings, GMC : No warppoints
    Format settings, Matrix : Custom
    Codec ID : XVID
    Codec ID/Hint : XviD
    Duration : 25 min 17 s
    Bit rate : 1 249 kb/s
    Width : 720 pixels
    Height : 400 pixels
    Display aspect ratio : 16: 9
    Frame rate : 23.976 (24000/1001) FPS
    Color space : YUV
    Chroma subsampling : 4: 2: 0
    Bit depth : 8 bits
    Scan type : Progressive
    Compression mode : Lossy
    Bits/(Pixel*Frame) : 0.181
    Stream size : 226 MiB (82%)
    Writing library : XviD 73
    Audio #1
    ID : 1
    Format : MPEG Audio
    Format version : Version 1
    Format profile : Layer 3
    Format settings : Joint stereo/MS Stereo
    Codec ID : 55
    Codec ID/Hint : MP3
    Duration : 25 min 17 s
    Bit rate mode : Constant
    Bit rate : 128 kb/s
    Channel(s) : 2 channels
    Sampling rate : 48.0 kHz
    Compression mode : Lossy
    Stream size : 23.2 MiB (8%)
    Alignment : Split accross interleaves
    Interleave, duration : 42 ms (1.00 video frame)
    Interleave, preload duratio : 500 ms
    Audio #2
    ID : 2
    Format : MPEG Audio
    Format version : Version 1
    Format profile : Layer 3
    Format settings : Joint stereo/MS Stereo
    Codec ID : 55
    Codec ID/Hint : MP3
    Duration : 25 min 17 s
    Bit rate mode : Constant
    Bit rate : 128 kb/s
    Channel(s) : 2 channels
    Sampling rate : 48.0 kHz
    Compression mode : Lossy
    Stream size : 23.2 MiB (8%)
    Alignment : Split accross interleaves
    Interleave, duration : 42 ms (1.00 video frame)
    Interleave, preload duratio : 500 ms
    General
    Complete name : D: BoJack HorsemanSeason 6Bojack.Horseman.s06e07.avi
    Format : AVI
    Format/Info : Audio Video Interleave
    File size : 294 MiB
    Duration : 27 min 2 s
    Overall bit rate : 1 518 kb/s
    Writing application : VirtualDubMod 1.5.10.2 (build 2540/release)
    Writing library : VirtualDubMod build 2540/release
    Video
    ID : 0
    Format : MPEG-4 Visual
    Format profile : Advanced Simple@L5
    Format settings : BVOP1/Custom Matrix
    Format settings, BVOP : 1
    Format settings, QPel : No
    Format settings, GMC : No warppoints
    Format settings, Matrix : Custom
    Codec ID : XVID
    Codec ID/Hint : XviD
    Duration : 27 min 2 s
    Bit rate : 1 248 kb/s
    Width : 720 pixels
    Height : 400 pixels
    Display aspect ratio : 16: 9
    Frame rate : 23.976 (24000/1001) FPS
    Color space : YUV
    Chroma subsampling : 4: 2: 0
    Bit depth : 8 bits
    Scan type : Progressive
    Compression mode : Lossy
    Bits/(Pixel*Frame) : 0.181
    Stream size : 241 MiB (82%)
    Writing library : XviD 73
    Audio #1
    ID : 1
    Format : MPEG Audio
    Format version : Version 1
    Format profile : Layer 3
    Format settings : Joint stereo/MS Stereo
    Codec ID : 55
    Codec ID/Hint : MP3
    Duration : 27 min 1 s
    Bit rate mode : Constant
    Bit rate : 128 kb/s
    Channel(s) : 2 channels
    Sampling rate : 48.0 kHz
    Compression mode : Lossy
    Stream size : 24.7 MiB (8%)
    Alignment : Split accross interleaves
    Interleave, duration : 42 ms (1.00 video frame)
    Interleave, preload duratio : 500 ms
    Audio #2
    ID : 2
    Format : MPEG Audio
    Format version : Version 1
    Format profile : Layer 3
    Format settings : Joint stereo/MS Stereo
    Codec ID : 55
    Codec ID/Hint : MP3
    Duration : 27 min 1 s
    Bit rate mode : Constant
    Bit rate : 128 kb/s
    Channel(s) : 2 channels
    Sampling rate : 48.0 kHz
    Compression mode : Lossy
    Stream size : 24.7 MiB (8%)
    Alignment : Split accross interleaves
    Interleave, duration : 42 ms (1.00 video frame)
    Interleave, preload duratio : 500 ms

    Скриншоты для ознакомления



    Все одноименные релизы в Клубе
    Время раздачи: 24/7 (мультитрекер)

    Онлайн видео Конь БоДжек


    Конь БоДжек / BoJack Horseman (2014-2020) WEB-DLRip (сезон 1-6, серии 1-77 из 77) NewStudio торрент скачать бесплатно
    Рейтинг →
     (голосов: 1, оценка 5/5, голосовать можно 1 раз )

    Другие торренты по теме:

  • Конь БоДжек / BoJack Horseman (2014) WEBRip (Сезон 1, серии 1-12 из 12) (NewStudio) [18+]
  • Конь БоДжек / BoJack Horseman (2015) WEBRip (Сезон 2, серии 1-12 из 12) (NewStudio) [18+] скачать через торрент бесплатно
  • Конь БоДжек / BoJack Horseman (2015) WEBRip (Сезон 2, серии 1-12 из 12) [1080p] (NewStudio) [18+] скачать через торрент бесплатно
  • Конь БоДжек / BoJack Horseman (2016) WEB [H.264 / 1080p-LQ] (Сезон 3, серии 1-7 из 12) Newstudio (обновляемая)
  • Конь БоДжек / BoJack Horseman (2016) WEB-DL [H.264 / 1080p-LQ] (Сезон 1-3, серии 1-37 из 37) Newstudio
  • Конь БоДжек / BoJack Horseman (2017) WEBRip [H.264 / 1080p-LQ] (сезон 4, серии 1-5 из 12) OMSKBIRD (обновляемая) [AD]
  • Конь БоДжек / BoJack Horseman (2017) WEBRip [H.264 / 1080p-LQ] (сезон 5, серии 1-12 из 12) NewStudio
  • Конь БоДжек / BoJack Horseman (2018) WEBRip [H.264 / 1080p-LQ] (сезон 5, серии 1-12 из 12) TVShows


    • Комментарии (0):

      Информация

      Информация

        Посетители, находящиеся в группе Гости, не могут оставлять комментарии в данной новости.

        ↓ Меню




        ↓ Опрос

        Вы добавили сайт в закладки?
        Да
        Нет


        Популярное

        Фиксики против Кработов (2019) WEB-DLRip

        (скачиваний: 134)
        Рик и Морти / Rick and Morty (2015) WEB-DL [H.264 / 1080p] (Сезон 2, серии 1-10 из 10) Сыендук [EN / RU Sub] скачать через торрент бесплатно

        (скачиваний: 109)
        М.Ю. Демидова | ЕГЭ-2020. Физика. 30 типовых вариантов (2020) [PDF]

        (скачиваний: 80)
        Малышарики (2015-2019) WEB-DL [H.264 / 1080p-LQ] (серии 1-154 из 208) [Обновляемая]

        (скачиваний: 67)
        Рик и Морти / Rick and Morty (2013) BDRip [H.264 / 720p-LQ] (сезон 1, серии 1-11 из 11) Сыендук

        (скачиваний: 65)
        Рик и Морти / Rick and Morty (2013) BDRip [H.264 / 1080p] (Сезон 1, серии 1-11 из 11) Сыендук [EN Sub] скачать через торрент бесплатно

        (скачиваний: 46)
        Фиксики против Кработов (2019) WEB-DL [H.264 / 1080p-LQ]

        (скачиваний: 32)
        Свинка Пеппа / Peppa Pig (2004-2012) SATRip (1-4 сезоны: 208 серий из 209) скачать через торрент бесплатно

        (скачиваний: 28)
        Рик и Морти / Rick and Morty (2017) WEBRip [H.264 / 720p-LQ] (Сезон 3, серии 1 из ) Сыендук

        (скачиваний: 26)
        Роботы-поезда / Robot Trains (2017) WEB-DL [H.264 / 720p-LQ] (1 сезон, 32 серий из 32)

        (скачиваний: 21)