Подписывайся на наш канал в Telegram https://t.me/torrentok и получи доступ к торрентам без ограничений!
.
Авторизация | Регистрация
bitok.xyz
Торрент скачать бесплатно Мультфильмы торрент скачать Белоснежка и семь гномов / Snow White and the Seven Dwarfs (1937) BDRip [H.264 / 1080p-LQ] торрент скачать бесплатно


    Белоснежка и семь гномов / Snow White and the Seven Dwarfs (1937) BDRip [H.264 / 1080p-LQ] торрент скачать бесплатно

    Дата: 16-02-2020, 05:00 | .torrent скачали: 0

    Белоснежка и семь гномов / Snow White and the Seven Dwarfs (1937) BDRip [H.264 / 1080p-LQ]Производство: США /Walt Disney
    Жанр: Детский, Фэнтези, Музыкальный, Приключения
    Режиссер: Уильям Коттрелл, Дэвид Хэнд, Уилфред Джексон

    Описание

    Экранизация знаменитой немецкой сказки братьев Гримм о Белоснежке, жившей в замке со злой мачехой-королевой, которая очень гордилась своей красотой. Узнав от волшебного зеркальца, что Белоснежка стала самой прекрасной девушкой на свете, завистница решила погубить прелестную падчерицу. Но бедная девушка не погибла в лесу, а наоборот, встретила там настоящих друзей — забавных семерых гномов: Профессора, Ворчуна, Весельчака, Скромника, Чихоню, Соню и Молчуна…

    Возраст: 0+ (для любой зрительской аудитории)
    Рейтинг MPAA: G (нет возрастных ограничений)
    Релиз от: SergeyAms
    Продолжительность: 01: 23: 11
    Качество видео: BDRip
    Перевод: Дублированный, многоголосый закадровый, одноголосый авторский
    Субтитры: русские (форс., полные), украинские (полные), английские (полные)
    Видео: AVC/H.264, 1448x1080, ~5 mbps
    Аудио #1: AC3, 6 ch, 640 kbps, Русский (дубляж, BD CEE)
    Аудио #2: AC3, 6 ch, 640 kbps, Русский (AVO, М. Ошурков)
    Аудио #3: AC3, 6 ch, 640 kbps, Русский (AVO, В. Горчаков)
    Аудио #4: AC3, 6 ch, 640 kbps, Русский (AVO, Ю. Живов)
    Аудио #5: AC3, 6 ch, 640 kbps, Русский (МVO)
    Аудио #6: AC3, 6 ch, 384 kbps, Русский (МVO, Позитив-Мультимедиа)
    Аудио #7: AC3, 6 ch, 448 kbps, Русский (МVO, Инфо-фильм)
    Аудио #8: AC3, 6 ch, 384 kbps, Русский (МVO, FDV)
    Аудио #9: AC3, 2 ch, 192 kbps, Русский (МVO, Мьюзик-Трейд)
    Аудио #10: AC3, 1 ch, 192 kbps, Украинский (дубляж)
    Аудио #11: DTS, 6 ch, 768 kbps, Английский
    x264 info: frame I: 878 Avg QP: 16.65 size: 168146
    x264 info: frame P: 40496 Avg QP: 17.25 size: 46904
    x264 info: frame B: 78295 Avg QP: 19.31 size: 13702
    Unique ID : 159876332609582203412284505961656002632 (0x78470FC773F5CCF258EC6BC608CCA848)
    Complete name : D: TempNNMБелоснежка.1937.1080p.mkv
    Format : Matroska
    Format version : Version 4/Version 2
    File size : 6.16 GiB
    Duration : 1h 23mn
    Overall bit rate : 10.6 Mbps
    Movie name : Snow White and the Seven Dwarfs (1937) BDRemux 1080p
    Writing library : Lavf57.71.100
    Video
    ID : 1
    Format : AVC
    Format/Info : Advanced Video Codec
    Format profile : High@L4.1
    Format settings, CABAC : Yes
    Format settings, ReFrames : 4 frames
    Codec ID : V_MPEG4/ISO/AVC
    Duration : 1h 23mn
    Bit rate : 5 000 Kbps
    Width : 1 448 pixels
    Height : 1 080 pixels
    Display aspect ratio : 4: 3
    Frame rate mode : Constant
    Frame rate : 23.976 fps
    Color space : YUV
    Chroma subsampling : 4: 2: 0
    Bit depth : 8 bits
    Scan type : Progressive
    Bits/(Pixel*Frame) : 0.133
    Stream size : 2.80 GiB (45%)
    Title : BDRemux1080p
    Writing library : x264 core 157 r2935 545de2f
    Encoding settings : cabac=1/ref=4/deblock=1: -3: -3/analyse=0x3: 0x113/me=umh/subme=9/psy=1/psy_rd=1.05: 0.10/mixed_ref=1/me_range=24/chroma_me=1/trellis=2/8x8dct=1/cqm=0/deadzone=21, 11/fast_pskip=0/chroma_qp_offset=-3/threads=5/lookahead_threads=1/sliced_threads=0/nr=0/decimate=0/interlaced=0/bluray_compat=0/constrained_intra=0/bframes=6/b_pyramid=2/b_adapt=2/b_bias=0/direct=1/weightb=1/open_gop=0/weightp=2/keyint=240/keyint_min=24/scenecut=40/intra_refresh=0/rc=2pass/mbtree=0/bitrate=5000/ratetol=1.0/qcomp=0.70/qpmin=3/qpmax=69/qpstep=4/cplxblur=20.0/qblur=0.5/ip_ratio=1.40/pb_ratio=1.30/aq=2: 1.00
    Language : English
    Default : Yes
    Forced : No
    Audio #1
    ID : 2
    Format : AC-3
    Format/Info : Audio Coding 3
    Mode extension : CM (complete main)
    Format settings, Endianness : Big
    Codec ID : A_AC3
    Duration : 1h 23mn
    Bit rate mode : Constant
    Bit rate : 640 Kbps
    Channel(s) : 6 channels
    Channel positions : Front: L C R, Side: L R, LFE
    Sampling rate : 48.0 KHz
    Bit depth : 16 bits
    Compression mode : Lossy
    Stream size : 381 MiB (6%)
    Title : Дубляж | BD CEE
    Language : Russian
    Default : Yes
    Forced : No
    Audio #2
    ID : 3
    Format : AC-3
    Format/Info : Audio Coding 3
    Mode extension : CM (complete main)
    Format settings, Endianness : Big
    Codec ID : A_AC3
    Duration : 1h 23mn
    Bit rate mode : Constant
    Bit rate : 640 Kbps
    Channel(s) : 6 channels
    Channel positions : Front: L C R, Side: L R, LFE
    Sampling rate : 48.0 KHz
    Bit depth : 16 bits
    Compression mode : Lossy
    Stream size : 381 MiB (6%)
    Title : Одноголосый закадровый | Максим Ошурков
    Language : Russian
    Default : No
    Forced : No
    Audio #3
    ID : 4
    Format : AC-3
    Format/Info : Audio Coding 3
    Mode extension : CM (complete main)
    Format settings, Endianness : Big
    Codec ID : A_AC3
    Duration : 1h 23mn
    Bit rate mode : Constant
    Bit rate : 640 Kbps
    Channel(s) : 6 channels
    Channel positions : Front: L C R, Side: L R, LFE
    Sampling rate : 48.0 KHz
    Bit depth : 16 bits
    Compression mode : Lossy
    Stream size : 381 MiB (6%)
    Title : Одноголосый закадровый | Василий Горчаков (поздний)
    Language : Russian
    Default : No
    Forced : No
    Audio #4
    ID : 5
    Format : AC-3
    Format/Info : Audio Coding 3
    Mode extension : CM (complete main)
    Format settings, Endianness : Big
    Codec ID : A_AC3
    Duration : 1h 23mn
    Bit rate mode : Constant
    Bit rate : 640 Kbps
    Channel(s) : 6 channels
    Channel positions : Front: L C R, Side: L R, LFE
    Sampling rate : 48.0 KHz
    Bit depth : 16 bits
    Compression mode : Lossy
    Stream size : 381 MiB (6%)
    Title : Одноголосый закадровый | Юрий Живов
    Language : Russian
    Default : No
    Forced : No
    Audio #5
    ID : 6
    Format : AC-3
    Format/Info : Audio Coding 3
    Mode extension : CM (complete main)
    Format settings, Endianness : Big
    Codec ID : A_AC3
    Duration : 1h 23mn
    Bit rate mode : Constant
    Bit rate : 640 Kbps
    Channel(s) : 6 channels
    Channel positions : Front: L C R, Side: L R, LFE
    Sampling rate : 48.0 KHz
    Bit depth : 16 bits
    Compression mode : Lossy
    Stream size : 381 MiB (6%)
    Title : Многоголосый закадровый
    Language : Russian
    Default : No
    Forced : No
    Audio #6
    ID : 7
    Format : AC-3
    Format/Info : Audio Coding 3
    Mode extension : CM (complete main)
    Format settings, Endianness : Big
    Codec ID : A_AC3
    Duration : 1h 23mn
    Bit rate mode : Constant
    Bit rate : 384 Kbps
    Channel(s) : 6 channels
    Channel positions : Front: L C R, Side: L R, LFE
    Sampling rate : 48.0 KHz
    Bit depth : 16 bits
    Compression mode : Lossy
    Stream size : 228 MiB (4%)
    Title : Многоголосый закадровый | New Dream Media/Позитив-Мультимедиа
    Language : Russian
    Default : No
    Forced : No
    Audio #7
    ID : 8
    Format : AC-3
    Format/Info : Audio Coding 3
    Mode extension : CM (complete main)
    Format settings, Endianness : Big
    Codec ID : A_AC3
    Duration : 1h 23mn
    Bit rate mode : Constant
    Bit rate : 448 Kbps
    Channel(s) : 6 channels
    Channel positions : Front: L C R, Side: L R, LFE
    Sampling rate : 48.0 KHz
    Bit depth : 16 bits
    Compression mode : Lossy
    Stream size : 267 MiB (4%)
    Title : Многоголосый закадровый | Инфо-фильм
    Language : Russian
    Default : No
    Forced : No
    Audio #8
    ID : 9
    Format : AC-3
    Format/Info : Audio Coding 3
    Mode extension : CM (complete main)
    Format settings, Endianness : Big
    Codec ID : A_AC3
    Duration : 1h 23mn
    Bit rate mode : Constant
    Bit rate : 384 Kbps
    Channel(s) : 6 channels
    Channel positions : Front: L C R, Side: L R, LFE
    Sampling rate : 48.0 KHz
    Bit depth : 16 bits
    Compression mode : Lossy
    Stream size : 228 MiB (4%)
    Title : Многоголосый закадровый | FDV
    Language : Russian
    Default : No
    Forced : No
    Audio #9
    ID : 10
    Format : AC-3
    Format/Info : Audio Coding 3
    Mode extension : CM (complete main)
    Format settings, Endianness : Big
    Codec ID : A_AC3
    Duration : 1h 23mn
    Bit rate mode : Constant
    Bit rate : 192 Kbps
    Channel(s) : 2 channels
    Channel positions : Front: L R
    Sampling rate : 48.0 KHz
    Bit depth : 16 bits
    Compression mode : Lossy
    Stream size : 114 MiB (2%)
    Title : Многоголосый закадровый | Мьюзик-трейд
    Language : Russian
    Default : No
    Forced : No
    Audio #10
    ID : 11
    Format : AC-3
    Format/Info : Audio Coding 3
    Mode extension : CM (complete main)
    Format settings, Endianness : Big
    Codec ID : A_AC3
    Duration : 1h 23mn
    Bit rate mode : Constant
    Bit rate : 192 Kbps
    Channel(s) : 1 channel
    Channel positions : Front: C
    Sampling rate : 48.0 KHz
    Bit depth : 16 bits
    Compression mode : Lossy
    Stream size : 114 MiB (2%)
    Title : Дубляж
    Language : Ukrainian
    Default : No
    Forced : No
    Audio #11
    ID : 12
    Format : DTS
    Format/Info : Digital Theater Systems
    Mode : 16
    Format settings, Endianness : Big
    Codec ID : A_DTS
    Duration : 1h 23mn
    Bit rate mode : Constant
    Bit rate : 768 Kbps
    Channel(s) : 6 channels
    Channel positions : Front: L C R, Side: L R, LFE
    Sampling rate : 48.0 KHz
    Bit depth : 16 bits
    Compression mode : Lossy
    Stream size : 457 MiB (7%)
    Language : English
    Default : No
    Forced : No
    Text #1
    ID : 13
    Format : UTF-8
    Codec ID : S_TEXT/UTF8
    Codec ID/Info : UTF-8 Plain Text
    Title : forced
    Language : Russian
    Default : Yes
    Forced : No
    Text #2
    ID : 14
    Format : UTF-8
    Codec ID : S_TEXT/UTF8
    Codec ID/Info : UTF-8 Plain Text
    Title : полные
    Language : Russian
    Default : No
    Forced : No
    Text #3
    ID : 15
    Format : UTF-8
    Codec ID : S_TEXT/UTF8
    Codec ID/Info : UTF-8 Plain Text
    Title : полные
    Language : Ukrainian
    Default : No
    Forced : No
    Text #4
    ID : 16
    Format : UTF-8
    Codec ID : S_TEXT/UTF8
    Codec ID/Info : UTF-8 Plain Text
    Title : полные
    Language : English
    Default : No
    Forced : No
    Menu
    00: 00: 00.000 : : 01. Opening Credits
    00: 01: 22.708 : : 02. Once Upon a Time
    00: 02: 11.965 : : 03. The Magic Mirror
    00: 03: 35.507 : : 04. I\'m Wishing
    00: 05: 25.825 : : 05. The Prince (One Song)
    00: 07: 00.045 : : 06. The Queen\'s Evil Plan
    00: 09: 11.426 : : 07. Flight Through the Forest
    00: 11: 34.736 : : 08. With a Smile and a Song
    00: 14: 56.979 : : 09. The Dwarfs\' Cottage
    00: 17: 38.348 : : 10. Whistle While You Work
    00: 21: 25.284 : : 11. Heigh-Ho
    00: 24: 09.156 : : 12. Snow White Explores Upstairs
    00: 25: 29.820 : : 13. The Dwarfs Arrive Home
    00: 34: 55.427 : : 14. Snow White Wakes Up
    00: 42: 47.398 : : 15. Bluddle-Uddle-Um-Dum
    00: 47: 49.408 : : 16. Deceived
    00: 49: 15.828 : : 17. The Queen Prepares A Disguise
    00: 52: 02.119 : : 18. The Dwarfs\' Yodel Song
    00: 56: 49.448 : : 19. Some Day My Prince Will Come
    00: 58: 53.321 : : 20. Settling Down for the Night
    01: 02: 38.797 : : 21. The Poison Apple
    01: 05: 40.937 : : 22. The Next Morning
    01: 08: 24.559 : : 23. The Old Peddler Woman
    01: 11: 41.297 : : 24. The Animals Warn the Dwarfs
    01: 14: 08.903 : : 25. The Apple
    01: 17: 42.992 : : 26. A Bedside Vigil
    01: 20: 27.614 : : 27. Love\'s First Kiss

    Скриншоты для ознакомления



    Все одноименные релизы в Клубе
    Время раздачи: 24/7 (до появления первых 3-5 скачавших)

    Онлайн видео Белоснежка и семь гномов


    Белоснежка и семь гномов / Snow White and the Seven Dwarfs (1937) BDRip [H.264 / 1080p-LQ] торрент скачать бесплатно
    Рейтинг →
     (голосов: 1, оценка 5/5, голосовать можно 1 раз )

    Другие торренты по теме:

  • Белоснежка и семь гномов / Snow White and the Seven Dwarfs (1937) BDRip [720p]
  • Белоснежка и семь гномов / Snow White and the Seven Dwarfs (1937) BDRip [720p] ATV скачать через торрент бесплатно
  • Белоснежка и семь гномов / Snow White and the Seven Dwarfs (1937) BDRip [H.264 / 1080p]


    • Комментарии (0):

      Информация

      Информация

        Посетители, находящиеся в группе Гости, не могут оставлять комментарии в данной новости.

        ↓ Меню




        Популярное