ВАЖНО! Сайт скоро заблокируют! Подписывайся на наш канал в Telegram https://t.me/torrentok и получи доступ к торрентам без ограничений!
.
Авторизация | Регистрация
bitok.xyz
Торрент скачать бесплатно Мультфильмы торрент скачать Zero kara Hajimeru Mahou no Sho | Grimoire of Zero | Книга Магии для Начинающих с Нуля [2017, TV, 12 ep] BDRip 1080p 10-bit raw+rus торрент скачать бесплатно

    Zero kara Hajimeru Mahou no Sho | Grimoire of Zero | Книга Магии для Начинающих с Нуля [2017, TV, 12 ep] BDRip 1080p 10-bit raw+rus торрент скачать бесплатно

    Дата: 16-02-2020, 05:00 | .torrent скачали: 0

    Zero kara Hajimeru Mahou no Sho | Grimoire of Zero | Книга Магии для Начинающих с Нуля [2017, TV, 12 ep] BDRip 1080p 10-bit raw+rusТип: TV
    Жанр: Приключения, Фэнтези
    Продолжительность: 12 Эпизодов по 23 Мин
    Количество серий: 12 Эпизодов
    Дата выпуска: c10.04.2017 по26.06.2017
    Автор оригинала: Кобасири Какэру
    Режиссер: Хиракава Тэцуо
    Производство: White Fox/ Япония

    World-Art |AniDB |MyAnimelist |Shikimori

    Описание

    История расскажет о мире, где существуют ведьмы, способные призывать различных бесов и заручаться их помощью. Местная церковь же ведёт безжалостную охоту на всех ведьм. И хотя среди последних есть те, кто мирно уживаются с людьми, щадить она никого не собирается. Ещё в этом мире есть зверолюди — дети, рождённые обычными людьми, но по непонятным причинам являющиеся смесью человека и зверя. На них тоже нередко ведётся охота, так как головы зверолюдей очень высоко ценятся на рынке ведьм.
    Однажды один зверочеловек повстречал ведьму по имени Зеро. Колдунья использует новый тип магии, позволяющий обходиться без призыва бесов в наш мир. По словам Зеро, любой человек, у которого есть хоть немного таланта к магии, может освоить этот тип заклинаний. Однако единственная в мире книга, где описано, как обучиться подобным техникам, была украдена. И теперь Зеро предстоит вернуть её. Она разыскивает своего давнего товарища, а повстречавшемуся ей зверочеловеку предлагает стать её телохранителем в этом долгом путешествии. А взамен — обещает превратить его в полноценного человека.
    Автор: UrAgAnChIk ©Shikimori
    Качество Видео: BDRip,
    Видео: HEVC/x265 , 1920x1080, 23.976 fps, 12.0 Mb/s, 0.241 bpp10-bit
    Язык Озвучки: Японский и Русский
    Озвучка: Двухголосая закадровая
    Аудио №1: AC32.0 , 48.0 kHz, 192 kb/s(AniDub) |Язык:
    Аудио №2: AAC2.0 , 48.0 kHz, 192 kb/s(AniLibria) |Язык:
    Аудио №3: AC32.0 , 48.0 kHz, 192 kb/s(Onibaku) |Язык:
    Аудио №4: AC32.0 , 48.0 kHz, 192 kb/s(Anything Group) |Язык:
    Аудио №5: FLAC2.0 , 48.0 kHz, 711 kb/s 16-Bit(Original) |Язык:
    Субтитры: Надписи/Полные(AniLibria) /(YakuSub Studio)

    Скриншоты для ознакомления





    01. The Witch and the Beastfallen (Ведьма и зверочеловек)
    02. Witch-Hunting (Охота на ведьм)
    03. Duel (Дуэль )
    04. The Road to Latette (Дорога в Латетт)
    05. The Sorcerers of Zero (Орден магов Зеро)
    06. Thirteen (Тринадцатый )
    07. Plasta, the Royal Capital (Фраста, королевская столица)
    08. Sorena`s Granddaughter (Внучка Сорены)
    09. Reunion (Воссоединение)
    10. The Truth Revealed (Разоблачение Истины)
    11. The Witch and the Sorcerer (Ведьма и Колдун)
    12. The Grimoire of Zero (Книга магии для начинающих с нуля)

    General
    Unique ID : 308872824428662256748367440950881763284 (0xE85EBDFE080C9DA546B09C05076D3FD4)
    Complete name : D: 1. The Witch and the Beastfallen (Ведьма и зверочеловек).mkv
    Format : Matroska
    Format version : Version 4
    File size : 2.23 GiB
    Duration : 23 min 42 s
    Overall bit rate mode : Variable
    Overall bit rate : 13.5 Mb/s
    Encoded date : UTC 2020-02-15 15: 58: 53
    Writing application : mkvmerge v43.0.0 (\'The Quartermaster\') 64-bit
    Writing library : libebml v1.3.10 + libmatroska v1.5.2
    Attachments : 7429113.TTF/calibri.ttf/3428309.TTF/5429179.TTF/AdonisC.otf/AGPmode.ttf
    Video
    ID : 1
    Format : HEVC
    Format/Info : High Efficiency Video Coding
    Format profile : Main 10@L4@Main
    Codec ID : V_MPEGH/ISO/HEVC
    Duration : 23 min 42 s
    Bit rate : 12.0 Mb/s
    Width : 1 920 pixels
    Height : 1 080 pixels
    Display aspect ratio : 16: 9
    Frame rate mode : Constant
    Frame rate : 23.976 (24000/1001) FPS
    Color space : YUV
    Chroma subsampling : 4: 2: 0
    Bit depth : 10 bits
    Bits/(Pixel*Frame) : 0.241
    Stream size : 1.99 GiB (89%)
    Writing library : x265 2.5: WindowsICC 170064 bit 10bit
    Encoding settings : cpuid=1049087/frame-threads=4/numa-pools=12, 12/wpp/no-pmode/no-pme/no-psnr/no-ssim/log-level=2/csvfn=01.txt/csv-log-level=2/input-csp=1/input-res=1920x1080/interlace=0/total-frames=0/level-idc=0/high-tier=1/uhd-bd=0/ref=4/no-allow-non-conformance/no-repeat-t_heads/annexb/no-aud/no-hrd/info/hash=0/no-temporal-layers/no-open-gop/min-keyint=23/keyint=240/bframes=9/b-adapt=2/b-pyramid/bframe-bias=0/rc-lookahead=20/lookahead-slices=6/scenecut=40/no-intra-refresh/ctu=32/min-cu-size=8/no-rect/no-amp/max-tu-size=32/tu-inter-depth=2/tu-intra-depth=2/limit-tu=0/rdoq-level=2/dynamic-rd=0.00/no-ssim-rd/signhide/no-tskip/nr-intra=0/nr-inter=0/no-constrained-intra/no-strong-intra-smoothing/max-merge=3/limit-refs=2/limit-modes/me=2/subme=5/merange=48/temporal-mvp/weightp/weightb/no-analyze-src-pics/deblock=1: -1/no-sao/no-sao-non-deblock/rd=4/no-early-skip/no-rskip/no-fast-intra/no-tskip-fast/no-cu-lossless/no-b-intra/rdpenalty=0/psy-rd=2.00/psy-rdoq=4.00/no-rd-refine/analysis-reuse-mode=0/no-lossless/cbqpoffs=0/crqpoffs=0/rc=crf/crf=16.0/qcomp=0.72/qpstep=4/stats-write=0/stats-read=0/ipratio=1.40/pbratio=1.30/aq-mode=3/aq-strength=0.85/no-cutree/zone-count=0/no-strict-cbr/qg-size=16/no-rc-grain/qpmax=69/qpmin=0/no-const-vbv/sar=1/overscan=0/videoformat=5/range=0/colorprim=1/transfer=1/colormatrix=1/chromaloc=0/display-window=0/max-cll=0, 0/min-luma=0/max-luma=1023/log2-max-poc-lsb=8/vui-timing-info/vui-hrd-info/slices=1/opt-qp-pps/opt-ref-list-length-pps/no-multi-pass-opt-rps/scenecut-bias=0.05/no-opt-cu-delta-qp/no-aq-motion/no-hdr/no-hdr-opt/no-dhdr10-opt/analysis-reuse-level=5/scale-factor=0/refine-intra=0/refine-inter=0/refine-mv=0/no-limit-sao/ctu-info=0
    Language : Japanese
    Default : Yes
    Forced : No
    Color range : Limited
    Color primaries : BT.709
    Transfer characteristics : BT.709
    Matrix coefficients : BT.709
    Audio #1
    ID : 2
    Format : AC-3
    Format/Info : Audio Coding 3
    Commercial name : Dolby Digital
    Codec ID : A_AC3
    Duration : 23 min 42 s
    Bit rate mode : Constant
    Bit rate : 192 kb/s
    Channel(s) : 2 channels
    Channel layout : L R
    Sampling rate : 48.0 kHz
    Frame rate : 31.250 FPS (1536 SPF)
    Compression mode : Lossy
    Stream size : 32.6 MiB (1%)
    Title : AniDub (JAM Trina_D)
    Language : Russian
    Service kind : Complete Main
    Default : Yes
    Forced : No
    Audio #2
    ID : 3
    Format : AAC LC
    Format/Info : Advanced Audio Codec Low Complexity
    Codec ID : A_AAC-2
    Duration : 23 min 42 s
    Bit rate : 192 kb/s
    Channel(s) : 2 channels
    Channel layout : L R
    Sampling rate : 48.0 kHz
    Frame rate : 46.875 FPS (1024 SPF)
    Compression mode : Lossy
    Stream size : 33.2 MiB (1%)
    Title : AniLibria (Nuts Cleo-chan)
    Language : Russian
    Default : No
    Forced : No
    Audio #3
    ID : 4
    Format : AC-3
    Format/Info : Audio Coding 3
    Commercial name : Dolby Digital
    Codec ID : A_AC3
    Duration : 23 min 42 s
    Bit rate mode : Constant
    Bit rate : 192 kb/s
    Channel(s) : 2 channels
    Channel layout : L R
    Sampling rate : 48.0 kHz
    Frame rate : 31.250 FPS (1536 SPF)
    Compression mode : Lossy
    Stream size : 32.6 MiB (1%)
    Title : Onibaku (Absurd Ruri)
    Language : Russian
    Service kind : Complete Main
    Default : No
    Forced : No
    Audio #4
    ID : 5
    Format : AC-3
    Format/Info : Audio Coding 3
    Commercial name : Dolby Digital
    Codec ID : A_AC3
    Duration : 23 min 42 s
    Bit rate mode : Constant
    Bit rate : 192 kb/s
    Channel(s) : 2 channels
    Channel layout : L R
    Sampling rate : 48.0 kHz
    Frame rate : 31.250 FPS (1536 SPF)
    Compression mode : Lossy
    Stream size : 32.6 MiB (1%)
    Title : Anything Group (Sad_kit Milirina)
    Language : Russian
    Service kind : Complete Main
    Default : No
    Forced : No
    Audio #5
    ID : 6
    Format : FLAC
    Format/Info : Free Lossless Audio Codec
    Codec ID : A_FLAC
    Duration : 23 min 42 s
    Bit rate mode : Variable
    Bit rate : 711 kb/s
    Channel(s) : 2 channels
    Channel layout : L R
    Sampling rate : 48.0 kHz
    Frame rate : 11.719 FPS (4096 SPF)
    Bit depth : 16 bits
    Compression mode : Lossless
    Stream size : 121 MiB (5%)
    Title : Original
    Writing library : libFLAC 1.3.1 (UTC 2014-11-25)
    Language : Japanese
    Default : No
    Forced : No
    Text #1
    ID : 7
    Format : ASS
    Codec ID : S_TEXT/ASS
    Codec ID/Info : Advanced Sub Station Alpha
    Duration : 23 min 8 s
    Bit rate : 6 b/s
    Count of elements : 7
    Compression mode : Lossless
    Stream size : 1.03 KiB (0%)
    Title : Forced (YakuSub Studio)
    Language : Russian
    Default : Yes
    Forced : Yes
    Text #2
    ID : 8
    Format : ASS
    Codec ID : S_TEXT/ASS
    Codec ID/Info : Advanced Sub Station Alpha
    Duration : 23 min 37 s
    Bit rate : 126 b/s
    Count of elements : 306
    Compression mode : Lossless
    Stream size : 21.8 KiB (0%)
    Title : Full (YakuSub Studio)
    Language : Russian
    Default : No
    Forced : No
    Text #3
    ID : 9
    Format : ASS
    Codec ID : S_TEXT/ASS
    Codec ID/Info : Advanced Sub Station Alpha
    Duration : 20 min 42 s
    Bit rate : 18 b/s
    Count of elements : 18
    Compression mode : Lossless
    Stream size : 2.85 KiB (0%)
    Title : Forced (AniLibria)
    Language : Russian
    Default : No
    Forced : No
    Text #4
    ID : 10
    Format : ASS
    Codec ID : S_TEXT/ASS
    Codec ID/Info : Advanced Sub Station Alpha
    Duration : 23 min 38 s
    Bit rate : 151 b/s
    Count of elements : 322
    Compression mode : Lossless
    Stream size : 26.2 KiB (0%)
    Title : Full (AniLibria)
    Language : Russian
    Default : No
    Forced : No
    Menu
    00: 00: 00.000 : en: Avant
    00: 03: 03.975 : en: Part A
    00: 15: 22.963 : en: Part B
    00: 22: 00.986 : en: ED
    00: 23: 30.992 : en: Next
    Время раздачи: С 8: 00 по 18: 00 МСК (до появления первых 3-5 скачавших)
    Понравился релиз? Ставь Оценку и нажми Спасибо
    Это серьёзно меня мотивирует делать подобные релизы.

    За ретайминг звука и субтитров огромное спасибо DS2902
    Полный список ретаймов


    Онлайн видео Zero kara Hajimeru Mahou no Sho


    Zero kara Hajimeru Mahou no Sho | Grimoire of Zero | Книга Магии для Начинающих с Нуля [2017, TV, 12 ep] BDRip 1080p 10-bit raw+rus торрент скачать бесплатно
    Рейтинг →
     (голосов: 1, оценка 5/5, голосовать можно 1 раз )

    Другие торренты по теме:

  • Re: Zero | Re: Zero kara Hajimeru Isekai Seikatsu | Re: Жизнь с нуля в другом мире [2016, TV, 1 из 12] WEB-DL 720p raw
  • Re: Zero | Re: Zero kara Hajimeru Isekai Seikatsu | Re: Жизнь с нуля в другом мире [2016, TV, 5 из 25 + >11 SP] BDrip 1080p raw
  • Zero kara Hajimeru Mahou no Sho | Grimoire of Zero | Книга магии для начинающих с нуля [2017, TV, 1 из 12 эп.] HDTV 720p raw
  • Zero kara Hajimeru Mahou no Sho / Grimoire of Zero / Гримуар Зеро [2017, TV, 5 из 12] HDTV 720p Raw+Rus
  • Zero kara Hajimeru Mahou no Sho | Grimoire of Zero | Книга магии для начинающих с нуля | Гримуар Зеро [2017, TV, 6 из 12 эп.] BD-rip 1080 10bit raw
  • Re: Zero | Re: Zero kara Hajimeru Isekai Seikatsu | Re: Жизнь с нуля в другом мире [2016, TV + Movie, 25 эп. + 25 SP + 1 MV] BDrip 1080p raw
  • Re: Zero | Re: Zero kara Hajimeru Isekai Seikatsu | Re: Жизнь с нуля в другом мире [2016, TV + Movie, 25 эп. + 1 MV] WEB-DL 720p raw
  • Re: Zero - Director`s Cut | Re: Zero kara Hajimeru Isekai Seikatsu - Shin Henshuu-ban | Re: Жизнь с нуля в другом мире (режиссёрская версия) [2020, TV, 2 из 13 эп.] WebRip 720p raw


    • Комментарии (0):

      Информация

      Информация

        Посетители, находящиеся в группе Гости, не могут оставлять комментарии в данной новости.

        ↓ Меню




        Популярное

        Роботы-пожарные / Fire Robo (2016) WEB-DLRip [H.264 / 720p-LQ] (сезон 1, серии 1-26 из 26) [Обновляемая]

        (скачиваний: 6)
        Лея Уотерс | Переключение на силу. Как научиться видеть в детях сильные стороны, чтобы помочь им расцвести (2019) [EPUB]

        (скачиваний: 5)
        Жила-была царевна (2015-2019) WEB-DLRip [H.264 / 720p-LQ] (сезон 1, серии 1-18 из 26) [Обновляемая]

        (скачиваний: 5)
        Сергей Матвеев | Полный курс английского языка для лентяев (2016) [PDF]

        (скачиваний: 5)
        Алексей Марков | Хулиганская экономика. Финансовые рынки для хулиганов и их родителей (2019) [EPUB]

        (скачиваний: 4)
        Металионы / Metalions (2018-2019) WEB-DLRip [H.264 / 720p-LQ] (сезон 1, серии 1-52 из 52) [Обновляемая]

        (скачиваний: 4)
        Александр Нилл | Воспитание свободой. Школа Саммерхилл (2020) [EPUB]

        (скачиваний: 4)
        Серия книг | Образовательная манга (2010 - 2015) [PDF]

        (скачиваний: 4)
        Мариэтта Чудакова | Рассказы про Россию. 1861—1922 (2020) [EPUB]

        (скачиваний: 3)
        Gekijouban KanColle | Kantai Collection Movie | Fleet Girls Collection: Movie Sequence| Коллекционная флотилия на большом экране [2016, Movie] BDrip 720p 10bit raw

        (скачиваний: 3)