Подписывайся на наш канал в Telegram https://t.me/torrentok и получи доступ к торрентам без ограничений!
.
Авторизация | Регистрация
bitok.xyz
Торрент скачать бесплатно Мультфильмы торрент скачать Hai to Gensou no Grimgar | Grimgar of Fantasy and Ash | Гримгал Мир Из Пепла и Иллюзий [2016, TV, 12 ep + 1 sp] BDRip 1080p 10-bit raw+rus торрент скачать бесплатно


    Hai to Gensou no Grimgar | Grimgar of Fantasy and Ash | Гримгал Мир Из Пепла и Иллюзий [2016, TV, 12 ep + 1 sp] BDRip 1080p 10-bit raw+rus торрент скачать бесплатно

    Дата: 16-02-2020, 05:00 | .torrent скачали: 0

    Hai to Gensou no Grimgar | Grimgar of Fantasy and Ash | Гримгал Мир Из Пепла и Иллюзий [2016, TV, 12 ep + 1 sp] BDRip 1080p 10-bit raw+rusТип: TV
    Жанр: Приключения, Фэнтези, Драма
    Продолжительность: 12 Эпизодов по 23 Мин.; 1 Эпизод 11 Мин.
    Количество серий: 13 Эпизодов
    Дата выпуска: c11.01.2016 по28.03.2016
    Автор оригинала: Дзюмондзи Ао
    Режиссер: Накамура Рёсукэ
    Производство: A-1 Pictures/ Япония

    World-Art |AniDB |MyAnimelist |Shikimori

    Описание

    Почему мы здесь? Зачем всё это?
    Не успел Харухиро понять, что происходит, как его окутала тьма. Почему он тут? Где он? Он до сих пор не нашёл ответы. Люди вокруг находятся в том же положении: никто не помнит ничего, кроме собственного имени. Выйдя наконец из мрака, они ступают на землю неизвестного мира, похожего на видеоигру. В целях выживания Харухиро объединяется с другими, учится драться и становится запасным в боевом отряде, вступившим в мир Гримгал. Что ждёт их в этом новом мире — не знает никто...
    Это повесть о приключениях, рождённых из пепла.
    Автор: Gerasya ©Shikimori
    Качество Видео: BDRip,
    Видео: AVC/x264 , 1920x1080, 23.976 fps, 12.7 Mb/s, 0.256 bpp10-bit
    Язык Озвучки: Японский и Русский
    Озвучка: Двухголосая, Многоголосая закадровая
    Аудио №1: AC32.0 , 48.0 kHz, 192 kb/s(AniDub) |Язык:
    Аудио №2: FLAC2.0 , 48.0 kHz, 746 kb/s 16-bit(Onibaku) |Язык:
    Аудио №3: FLAC2.0 , 48.0 kHz, 696 kb/s 16-Bit(Original) |Язык:
    Субтитры: Надписи/Полные(YakuSub Studio) /(Zero Hariton Harko)

    Скриншоты для ознакомления






    01. Whisper, Chant, Prayer, Awaken (Шёпот, песнь, молитва, пробуждение)
    02. Long Day of the Trainee Volunteer Soldier (Долгий день добровольца-ученика)
    02.5. Special
    03. Are Goblin Pouches Filled with Our Dreams (Сумки гоблинов полны нашими мечтами)
    04. Sky Dancing with Ash (Пепел, кружась, устремляется ввысь)
    05. Crying Doesn`t Mean You`re Weak. Enduring Doesn`t Mean You`re Strong (Слёзы - не признак слабости, а невозмутимость не означает сильного духом)
    06. Her Circumstances (Её ситуация)
    07. They Were Called Goblin Slayers (Их называли убийцами гоблинов)
    08. In My Memories with You (Вспоминая о тебе)
    09. How to Rest (Как проводить выходной)
    10. I`m Not Fit to Be a Leader (Я не гожусь на роль лидера)
    11. Between Life and Death (Между жизнью и смертью)
    12. See You Tomorrow... (До завтра...)

    General
    Unique ID : 167245088941284658520093761302095577152 (0x7DD23B84188970463C8642F1EF75C040)
    Complete name : D: 1. Whisper, Chant, Prayer, Awaken (Шёпот, песнь, молитва, пробуждение).mkv
    Format : Matroska
    Format version : Version 4
    File size : 2.38 GiB
    Duration : 23 min 58 s
    Overall bit rate mode : Variable
    Overall bit rate : 14.2 Mb/s
    Encoded date : UTC 2020-02-15 16: 27: 51
    Writing application : mkvmerge v43.0.0 (\'The Quartermaster\') 64-bit
    Writing library : libebml v1.3.10 + libmatroska v1.5.2
    Attachments : constantia_regular.ttf/segoe_ui_semilight_regular.ttf/calibri_bold.ttf/cambria_regular.ttc/georgia_regular.ttf/hortensia_regular.ttf/palatino_linotype_bold.ttf/palatino_linotype_regular.ttf/segoe_print_bold.ttf/book_antiqua_bold.ttf/book_antiqua_bold_italic.ttf/candara_regular.ttf/georgia_bold.ttf
    Video
    ID : 1
    Format : AVC
    Format/Info : Advanced Video Codec
    Format profile : High 10@L5
    Format settings : CABAC/4 Ref Frames
    Format settings, CABAC : Yes
    Format settings, Reference : 4 frames
    Codec ID : V_MPEG4/ISO/AVC
    Duration : 23 min 41 s
    Bit rate : 12.7 Mb/s
    Width : 1 920 pixels
    Height : 1 080 pixels
    Display aspect ratio : 16: 9
    Frame rate mode : Constant
    Frame rate : 23.976 (24000/1001) FPS
    Color space : YUV
    Chroma subsampling : 4: 2: 0
    Bit depth : 10 bits
    Scan type : Progressive
    Bits/(Pixel*Frame) : 0.256
    Stream size : 2.10 GiB (88%)
    Writing library : x264 core 148 r2597M e86f3a1 (DJATOM\'s build)
    Encoding settings : cabac=1/ref=4/deblock=1: 1: -1/analyse=0x3: 0x133/me=umh/subme=9/psy=1/fade_compensate=0.00/psy_rd=1.00: 0.00/mixed_ref=1/me_range=32/chroma_me=1/trellis=2/8x8dct=1/cqm=0/deadzone=21, 11/fast_pskip=1/chroma_qp_offset=-2/threads=24/lookahead_threads=4/sliced_threads=0/nr=0/decimate=1/interlaced=0/bluray_compat=0/constrained_intra=0/bframes=9/b_pyramid=2/b_adapt=2/b_bias=0/direct=1/weightb=1/open_gop=0/weightp=2/keyint=250/keyint_min=23/scenecut=40/intra_refresh=0/rc=crf/mbtree=0/crf=15.0000/qcomp=0.72/qpmin=0/qpmax=81/qpstep=4/ip_ratio=1.40/pb_ratio=1.30/aq=1: 0.85
    Language : Japanese
    Default : Yes
    Forced : No
    Color range : Limited
    Color primaries : BT.709
    Transfer characteristics : BT.709
    Matrix coefficients : BT.709
    Audio #1
    ID : 2
    Format : AC-3
    Format/Info : Audio Coding 3
    Commercial name : Dolby Digital
    Codec ID : A_AC3
    Duration : 23 min 58 s
    Bit rate mode : Constant
    Bit rate : 192 kb/s
    Channel(s) : 2 channels
    Channel layout : L R
    Sampling rate : 48.0 kHz
    Frame rate : 31.250 FPS (1536 SPF)
    Compression mode : Lossy
    Stream size : 32.9 MiB (1%)
    Title : AniDub
    Language : Russian
    Service kind : Complete Main
    Default : Yes
    Forced : No
    Audio #2
    ID : 3
    Format : FLAC
    Format/Info : Free Lossless Audio Codec
    Codec ID : A_FLAC
    Duration : 23 min 41 s
    Bit rate mode : Variable
    Bit rate : 746 kb/s
    Channel(s) : 2 channels
    Channel layout : L R
    Sampling rate : 48.0 kHz
    Frame rate : 11.719 FPS (4096 SPF)
    Bit depth : 16 bits
    Compression mode : Lossless
    Stream size : 126 MiB (5%)
    Title : Onibaku (Eladiel Zendos)
    Writing library : libFLAC 20080709 (UTC 2008-07-09)
    Language : Russian
    Default : No
    Forced : No
    Audio #3
    ID : 4
    Format : FLAC
    Format/Info : Free Lossless Audio Codec
    Codec ID : A_FLAC
    Duration : 23 min 41 s
    Bit rate mode : Variable
    Bit rate : 695 kb/s
    Channel(s) : 2 channels
    Channel layout : L R
    Sampling rate : 48.0 kHz
    Frame rate : 11.719 FPS (4096 SPF)
    Bit depth : 16 bits
    Compression mode : Lossless
    Stream size : 118 MiB (5%)
    Title : Original
    Writing library : libFLAC 1.3.1 (UTC 2014-11-25)
    Language : Japanese
    Default : No
    Forced : No
    Text #1
    ID : 5
    Format : ASS
    Codec ID : S_TEXT/ASS
    Codec ID/Info : Advanced Sub Station Alpha
    Duration : 12 min 23 s
    Bit rate : 3 996 b/s
    Count of elements : 1959
    Compression mode : Lossless
    Stream size : 363 KiB (0%)
    Title : Forced (YakuSub Studio)
    Language : Russian
    Default : Yes
    Forced : No
    Text #2
    ID : 6
    Format : ASS
    Codec ID : S_TEXT/ASS
    Codec ID/Info : Advanced Sub Station Alpha
    Duration : 23 min 25 s
    Bit rate : 2 273 b/s
    Count of elements : 2260
    Compression mode : Lossless
    Stream size : 390 KiB (0%)
    Title : Full (YakuSub Studio)
    Language : Russian
    Default : No
    Forced : No
    Text #3
    ID : 7
    Format : ASS
    Codec ID : S_TEXT/ASS
    Codec ID/Info : Advanced Sub Station Alpha
    Duration : 21 min 25 s
    Bit rate : 4 b/s
    Count of elements : 5
    Compression mode : Lossless
    Stream size : 653 Bytes (0%)
    Title : Forced (Zero Hariton Harko)
    Language : Russian
    Default : No
    Forced : No
    Text #4
    ID : 8
    Format : ASS
    Codec ID : S_TEXT/ASS
    Codec ID/Info : Advanced Sub Station Alpha
    Duration : 23 min 25 s
    Bit rate : 158 b/s
    Count of elements : 294
    Compression mode : Lossless
    Stream size : 27.2 KiB (0%)
    Title : Full (Zero Hariton Harko)
    Language : Russian
    Default : No
    Forced : No
    Menu
    00: 00: 00.000 : : Avant
    00: 02: 13.007 : : Part A
    00: 11: 19.011 : : Part B
    00: 21: 55.981 : : ED
    00: 23: 25.987 : : Next
    Время раздачи: С 8: 00 по 18: 00 МСК (до появления первых 3-5 скачавших)
    Понравился релиз? Ставь Оценку и нажми Спасибо
    Это серьёзно меня мотивирует делать подобные релизы.

    За ретайминг звука и субтитров огромное спасибо DS2902
    Полный список ретаймов


    Онлайн видео Hai to Gensou no Grimgar


    Hai to Gensou no Grimgar | Grimgar of Fantasy and Ash | Гримгал Мир Из Пепла и Иллюзий [2016, TV, 12 ep + 1 sp] BDRip 1080p 10-bit raw+rus торрент скачать бесплатно
    Рейтинг →
     (голосов: 1, оценка 3/5, голосовать можно 1 раз )

    Другие торренты по теме:

  • Hai to Gensou no Grimgar / Grimgar of Fantasy and Ash / Гримгар фантазии и праха [2016, TV, 1 из 12] HDTV 720p raw
  • Hai to Gensou no Grimgar / Гримгал пепла и иллюзий [2016, TV, 12 эп.] BDRip 1080p raw


    • Комментарии (0):

      Информация

      Информация

        Посетители, находящиеся в группе Гости, не могут оставлять комментарии в данной новости.

        ↓ Меню




        Популярное