Подписывайся на наш канал в Telegram https://t.me/torrentok и получи доступ к торрентам без ограничений!
.
Авторизация | Регистрация
bitok.xyz
Торрент скачать бесплатно Мультфильмы торрент скачать Sword Art Online: Alicization | Мастера Меча Онлайн: Алисизация [2018, TV, 24 ep + 1 sp] BDRip 1080p raw+rus торрент скачать бесплатно


    Sword Art Online: Alicization | Мастера Меча Онлайн: Алисизация [2018, TV, 24 ep + 1 sp] BDRip 1080p raw+rus торрент скачать бесплатно

    Дата: 16-02-2020, 05:00 | .torrent скачали: 0

    Sword Art Online: Alicization | Мастера Меча Онлайн: Алисизация [2018, TV, 24 ep + 1 sp] BDRip 1080p raw+rusТип: TV
    Жанр: Приключения, Фэнтези
    Продолжительность: 1 Эпизод 47 Мин.; 24 Эпизода по 23 Мин.
    Количество серий: 25 Эпизодов
    Дата выпуска: c07.10.2018 по31.03.2019
    Автор оригинала: Кавахара Рэки
    Режиссер: Оно Манабу
    Производство: A-1 Pictures/ Япония

    World-Art |AniDB |MyAnimelist |Shikimori

    Описание

    Кирито просыпается в гуще огромного, фантастического леса. В попытках разузнать, как он там очутился, он встречает мальчика, который, кажется, знает его. Он должен быть обычным NPC, но его эмоции ничуть не отличаются от человеческих. Со временем к Кирито возвращаются некие воспоминания. Воспоминания из его детства, об этом мальчике и девочке с золотыми, как солнце, волосами, и именем, которое он никогда не должен забыть, — Алиса.
    Автор: KeoFoxy ©Shikimori
    Качество Видео: BDRip,
    Видео: AVC/x264 , 1920x1080, 23.976 fps, 11.4 Mb/s, 0.229 bpp8-bit
    Язык Озвучки: Японский и Русский
    Озвучка: Многоголосая закадровая
    Аудио №1: AAC2.0 , 48.0 kHz, 192 kb/s(Kansai Studio) |Язык:
    Аудио №2: AAC2.0 , 48.0 kHz, 192 kb/s(AnilLbria) |Язык:
    Аудио №3: FLAC2.0 , 48.0 kHz, 1 340 kb/s 24-Bit(Original) |Язык:
    *Планируется добавление звука от: Shiza, AniDub, Amber, Anistar (MVO), Animedia, Coldfilm. Если интересуют данные звуковые дорожки в качестве коллекции - добавляйте релиз в Закладки
    Субтитры: Надписи/Полные(AniLibria)

    Скриншоты для ознакомления




    Внимание! Весь тайтл, в моём варианте, суммарно весит минимум204 ГБ
    1) Sword Art Online TV-1
    2) Sword Art Online Extra Edition
    3) Sword Art Online TV-2
    4) Sword Art Online Ordinal Scale
    5) Sword Art Online Gun Gale Online
    6) Sword Art Online Alicization TV(Эта раздача)
    7) Sword Art Online Alicization - War of Underworld TV-1(После появления BDRip)
    8) Sword Art Online Alicization - War of Underworld TV-2(После появления BDRip) (Анонс)
    Все серии пронумерованы для удобства просмотра в хронологическом порядке. Можно всё закинуть в одну папку и наслаждаться непрерывным просмотром.
    01. Underworld (Подмирье)
    02. The Demon Tree (Дьявольское древо)
    03. The End Mountains (Краевой хребет)
    04. Departure (В путь)
    05. Ocean Turtle (Морская черепаха)
    06. Project Alicization (Проект Алисизация)
    07. Swordcraft Academy (Академия мастеров меча)
    08. Swordsman`s Pride (Гордость мечника)
    09. Nobleman\'s Responsibilities (Долг знати)
    10. Taboo Index (Кодекс Запретов)
    11. Central Cathedral (Центральный собор)
    12. The Sage of the Library (Мудрец из библиотеки)
    13. Ruler and Mediator (Владычица и регулятор)
    14. The Crimson Knight (Рыцарь Алого Пламени)
    15. The Relentless Knight (Рыцарь Неистового Света)
    16. The Osmanthus Knight (Рыцарь Душистой Оливы)
    17. Truce (Перемирие)
    18. The Legendary Hero (Легендарный Герой)
    18.5. Recollection (Воспоминания)
    19. The Seal of the Right Eye (Печать в правом глазу)
    20. Synthesis (Синтез)
    21. The 32nd Knight (Тридцать второй рыцарь)
    22. Titan of the Sword (Голем из мечей)
    23. Administrator (Администратор)
    24. My Hero (Мой герой)

    General
    Unique ID : 19661246600170406757903557707820743203 (0xECA9E4CA70D1700FA1A10A7E72CBA23)
    Complete name : J: АнимеМастера Меча Онлайн (Sword Art Online) BDRip (2012-2020)(06)01 (Alicization). Underworld (Подмирье).mkv
    Format : Matroska
    Format version : Version 4
    File size : 4.85 GiB
    Duration : 47 min 42 s
    Overall bit rate mode : Variable
    Overall bit rate : 14.5 Mb/s
    Encoded date : UTC 2019-10-31 08: 55: 54
    Writing application : mkvmerge v38.0.0 (\'The Silent Type\') 64-bit
    Writing library : libebml v1.3.9 + libmatroska v1.5.2
    Attachments : DendaNewBlackCondC.otf/E2nNPZYI_1.ttf/eurosd__1.ttf/FortuneC.otf/Intro-Regular-Alt_0.otf/Molot_0.otf/OpenSans-BoldItalic_0.ttf/OpenSans-Semibold_0.ttf/OpenSans-SemiboldItalic_0.ttf/PTS55F_0.ttf/Roboto-Light_1.ttf/Street Freehand_0.ttf/SubClea2_1.ttf/To forgive_0.ttf/Akrobat-Bold_0.otf/CENTURY0_0.TTF
    Video
    ID : 1
    Format : AVC
    Format/Info : Advanced Video Codec
    Format profile : High@L4
    Format settings : CABAC/4 Ref Frames
    Format settings, CABAC : Yes
    Format settings, Reference : 4 frames
    Codec ID : V_MPEG4/ISO/AVC
    Duration : 47 min 42 s
    Bit rate : 12.4 Mb/s
    Width : 1 920 pixels
    Height : 1 080 pixels
    Display aspect ratio : 16: 9
    Frame rate mode : Constant
    Frame rate : 23.976 (24000/1001) FPS
    Color space : YUV
    Chroma subsampling : 4: 2: 0
    Bit depth : 8 bits
    Scan type : Progressive
    Bits/(Pixel*Frame) : 0.249
    Stream size : 4.13 GiB (85%)
    Writing library : x264 core 152
    Encoding settings : opencl=1/cabac=1/ref=4/deblock=1: -2: -2/analyse=0x3: 0x113/me=umh/subme=9/psy=1/psy_rd=0.70: 0.00/mixed_ref=0/me_range=32/chroma_me=1/trellis=2/8x8dct=1/cqm=0/deadzone=21, 11/fast_pskip=1/chroma_qp_offset=-2/threads=8/lookahead_threads=1/sliced_threads=0/nr=0/decimate=1/interlaced=0/bluray_compat=0/constrained_intra=0/bframes=9/b_pyramid=2/b_adapt=2/b_bias=0/direct=3/weightb=1/open_gop=0/weightp=2/keyint=250/keyint_min=23/scenecut=40/intra_refresh=0/rc_lookahead=40/rc=crf/mbtree=1/crf=16.0/qcomp=0.70/qpmin=10/qpmax=20/qpstep=4/ip_ratio=1.40/aq=1: 1.00
    Language : Japanese
    Default : Yes
    Forced : No
    Audio #1
    ID : 2
    Format : AAC LC
    Format/Info : Advanced Audio Codec Low Complexity
    Codec ID : A_AAC-2
    Duration : 47 min 42 s
    Bit rate : 192 kb/s
    Channel(s) : 2 channels
    Channel layout : L R
    Sampling rate : 48.0 kHz
    Frame rate : 46.875 FPS (1024 SPF)
    Compression mode : Lossy
    Stream size : 64.6 MiB (1%)
    Title : Kansai Studio
    Language : Russian
    Default : Yes
    Forced : No
    Audio #2
    ID : 3
    Format : AAC LC
    Format/Info : Advanced Audio Codec Low Complexity
    Codec ID : A_AAC-2
    Duration : 47 min 42 s
    Bit rate : 192 kb/s
    Channel(s) : 2 channels
    Channel layout : L R
    Sampling rate : 48.0 kHz
    Frame rate : 46.875 FPS (1024 SPF)
    Compression mode : Lossy
    Stream size : 64.6 MiB (1%)
    Title : Sharon HectoR Amikiri Aemi Hekomi (AniLibria)
    Language : Russian
    Default : No
    Forced : No
    Audio #3
    ID : 4
    Format : AAC LC
    Format/Info : Advanced Audio Codec Low Complexity
    Codec ID : A_AAC-2
    Duration : 47 min 42 s
    Bit rate : 192 kb/s
    Channel(s) : 2 channels
    Channel layout : L R
    Sampling rate : 48.0 kHz
    Frame rate : 46.875 FPS (1024 SPF)
    Compression mode : Lossy
    Stream size : 64.6 MiB (1%)
    Title : Amber
    Language : Russian
    Default : No
    Forced : No
    Audio #4
    ID : 5
    Format : AAC LC
    Format/Info : Advanced Audio Codec Low Complexity
    Codec ID : A_AAC-2
    Duration : 47 min 42 s
    Bit rate : 192 kb/s
    Channel(s) : 2 channels
    Channel layout : L R
    Sampling rate : 48.0 kHz
    Frame rate : 46.875 FPS (1024 SPF)
    Compression mode : Lossy
    Stream size : 64.6 MiB (1%)
    Title : ColdFilm
    Language : Russian
    Default : No
    Forced : No
    Audio #5
    ID : 6
    Format : FLAC
    Format/Info : Free Lossless Audio Codec
    Codec ID : A_FLAC
    Duration : 47 min 42 s
    Bit rate mode : Variable
    Bit rate : 1 381 kb/s
    Channel(s) : 2 channels
    Channel layout : L R
    Sampling rate : 48.0 kHz
    Frame rate : 10.417 FPS (4608 SPF)
    Bit depth : 24 bits
    Compression mode : Lossless
    Stream size : 471 MiB (9%)
    Title : Original
    Writing library : Lavf57.71.100
    Language : Japanese
    Default : No
    Forced : No
    Text #1
    ID : 7
    Format : ASS
    Codec ID : S_TEXT/ASS
    Codec ID/Info : Advanced Sub Station Alpha
    Duration : 47 min 33 s
    Bit rate : 324 b/s
    Count of elements : 890
    Compression mode : Lossless
    Stream size : 113 KiB (0%)
    Title : Forced (AniLibria)
    Language : Russian
    Default : Yes
    Forced : No
    Text #2
    ID : 8
    Format : ASS
    Codec ID : S_TEXT/ASS
    Codec ID/Info : Advanced Sub Station Alpha
    Duration : 47 min 33 s
    Bit rate : 469 b/s
    Count of elements : 1510
    Compression mode : Lossless
    Stream size : 164 KiB (0%)
    Title : Full (AniLibria)
    Language : Russian
    Default : No
    Forced : No

    General
    Unique ID : 213706590267620091620649560282052903347 (0xA0C6646400DCE3CFDFE1BEDD7D0741B3)
    Complete name : J: АнимеМастера Меча Онлайн (Sword Art Online) BDRip (2012-2020)(06)02 (Alicization). The Demon Tree (Дьявольское древо).mkv
    Format : Matroska
    Format version : Version 4
    File size : 2.17 GiB
    Duration : 23 min 42 s
    Overall bit rate mode : Variable
    Overall bit rate : 13.1 Mb/s
    Encoded date : UTC 2019-10-31 08: 59: 25
    Writing application : mkvmerge v38.0.0 (\'The Silent Type\') 64-bit
    Writing library : libebml v1.3.9 + libmatroska v1.5.2
    Attachments : CENTURY0_0.TTF/DendaNewBlackCondC.otf/E2nNPZYI_1.ttf/eurosd__1.ttf/FortuneC.otf/Intro-Regular-Alt_0.otf/Molot_0.otf/OpenSans-BoldItalic_0.ttf/OpenSans-Semibold_0.ttf/OpenSans-SemiboldItalic_0.ttf/PTS55F_0.ttf/Roboto-Light_1.ttf/Street Freehand_0.ttf/SubClea2_1.ttf/To forgive_0.ttf/Akrobat-Bold_0.otf
    Video
    ID : 1
    Format : AVC
    Format/Info : Advanced Video Codec
    Format profile : High@L4
    Format settings : CABAC/4 Ref Frames
    Format settings, CABAC : Yes
    Format settings, Reference : 4 frames
    Codec ID : V_MPEG4/ISO/AVC
    Duration : 23 min 42 s
    Bit rate : 11.4 Mb/s
    Width : 1 920 pixels
    Height : 1 080 pixels
    Display aspect ratio : 16: 9
    Frame rate mode : Constant
    Frame rate : 23.976 (24000/1001) FPS
    Color space : YUV
    Chroma subsampling : 4: 2: 0
    Bit depth : 8 bits
    Scan type : Progressive
    Bits/(Pixel*Frame) : 0.229
    Stream size : 1.88 GiB (87%)
    Writing library : x264 core 152
    Encoding settings : opencl=1/cabac=1/ref=4/deblock=1: -2: -2/analyse=0x3: 0x113/me=umh/subme=9/psy=1/psy_rd=0.70: 0.00/mixed_ref=0/me_range=32/chroma_me=1/trellis=2/8x8dct=1/cqm=0/deadzone=21, 11/fast_pskip=1/chroma_qp_offset=-2/threads=8/lookahead_threads=1/sliced_threads=0/nr=0/decimate=1/interlaced=0/bluray_compat=0/constrained_intra=0/bframes=9/b_pyramid=2/b_adapt=2/b_bias=0/direct=3/weightb=1/open_gop=0/weightp=2/keyint=250/keyint_min=23/scenecut=40/intra_refresh=0/rc_lookahead=40/rc=crf/mbtree=1/crf=16.0/qcomp=0.70/qpmin=10/qpmax=20/qpstep=4/ip_ratio=1.40/aq=1: 1.00
    Language : Japanese
    Default : Yes
    Forced : No
    Audio #1
    ID : 2
    Format : AAC LC
    Format/Info : Advanced Audio Codec Low Complexity
    Codec ID : A_AAC-2
    Duration : 23 min 42 s
    Bit rate : 192 kb/s
    Channel(s) : 2 channels
    Channel layout : L R
    Sampling rate : 48.0 kHz
    Frame rate : 46.875 FPS (1024 SPF)
    Compression mode : Lossy
    Stream size : 32.1 MiB (1%)
    Title : Kansai Studio
    Language : Russian
    Default : Yes
    Forced : No
    Audio #2
    ID : 3
    Format : AAC LC
    Format/Info : Advanced Audio Codec Low Complexity
    Codec ID : A_AAC-2
    Duration : 23 min 42 s
    Bit rate : 192 kb/s
    Channel(s) : 2 channels
    Channel layout : L R
    Sampling rate : 48.0 kHz
    Frame rate : 46.875 FPS (1024 SPF)
    Compression mode : Lossy
    Stream size : 32.1 MiB (1%)
    Title : Sharon HectoR Amikiri Aemi Hekomi (AniLibria)
    Language : Russian
    Default : No
    Forced : No
    Audio #3
    ID : 4
    Format : FLAC
    Format/Info : Free Lossless Audio Codec
    Codec ID : A_FLAC
    Duration : 23 min 42 s
    Bit rate mode : Variable
    Bit rate : 1 340 kb/s
    Channel(s) : 2 channels
    Channel layout : L R
    Sampling rate : 48.0 kHz
    Frame rate : 10.417 FPS (4608 SPF)
    Bit depth : 24 bits
    Compression mode : Lossless
    Stream size : 227 MiB (10%)
    Title : Original
    Writing library : Lavf57.71.100
    Language : Japanese
    Default : No
    Forced : No
    Text #1
    ID : 5
    Format : ASS
    Codec ID : S_TEXT/ASS
    Codec ID/Info : Advanced Sub Station Alpha
    Duration : 23 min 37 s
    Bit rate : 920 b/s
    Count of elements : 1088
    Compression mode : Lossless
    Stream size : 159 KiB (0%)
    Title : Forced (AniLibria)
    Language : Russian
    Default : Yes
    Forced : No
    Text #2
    ID : 6
    Format : ASS
    Codec ID : S_TEXT/ASS
    Codec ID/Info : Advanced Sub Station Alpha
    Duration : 23 min 37 s
    Bit rate : 1 047 b/s
    Count of elements : 1360
    Compression mode : Lossless
    Stream size : 181 KiB (0%)
    Title : Full (AniLibria)
    Language : Russian
    Default : No
    Forced : No
    Время раздачи: С 8: 00 по 18: 00 МСК (до появления первых 3-5 скачавших)
    Понравился релиз? Ставь Оценку и нажми Спасибо
    Это серьёзно меня мотивирует делать подобные релизы.

    За ретайминг звука и субтитров огромное спасибо DS2902
    Полный список ретаймов


    Онлайн видео Sword Art Online: Alicization


    Sword Art Online: Alicization | Мастера Меча Онлайн: Алисизация [2018, TV, 24 ep + 1 sp] BDRip 1080p raw+rus торрент скачать бесплатно
    Рейтинг →
     (голосов: 1, оценка 5/5, голосовать можно 1 раз )

    Другие торренты по теме:

  • Sword Art Online: Alicization | Sword Art Online: Alicization | Мастера Меча Онлайн: Алисизация [2018, TV, 1 из 12] WEBRip 1080p raw+rus
  • Sword Art Online: Alicization 2 / Sword Art Online: Alicization - War of Underworld / Мастера меча онлайн: Алисизация - Война в Подмирье [2019, TV, 1 из 23] WEBRip 720p raw
  • Sword Art Online Alternative: Gun Gale Online Squad Jam | GunGale Online: "Схватка отрядов" (2014) [1 том] [Ранобэ] [Русский] [DOCX, FB2, EPUB, JPG] [incomplete]
  • Sword Art Online Alternative: Gun Gale Online / Мастера меча онлайн альтернатива: Призрачная Пуля Онлайн [2018, TV, 1 из 12] HDTV 720p raw
  • Sword Art Online Alternative: Gun Gale Online / Мастера меча онлайн: Альтернативная «Призрачная пуля» [2018, TV, 6 из 12 + OVA] WEB-DL 720p Raw+Rus
  • Sword Art Online Alternative: Gun Gale Online | Мастера меча онлайн: Альтернативная «Призрачная пуля» [2018, TV, 2 из 12 эп.] BDrip 1080p raw
  • Sword Art Online Alternative: Gun Gale Online | Мастера Меча Онлайн: Альтернативная «Призрачная пуля» [2018, TV, 12 ep] BDRip 1080p 10-bit raw+rus
  • Sword Art Online II / Мастера меча онлайн 2 [2014, TV, 12 из 24] HDTV 720p raw


    • Комментарии (0):

      Информация

      Информация

        Посетители, находящиеся в группе Гости, не могут оставлять комментарии в данной новости.

        ↓ Меню




        Популярное

        Фиксики против Кработов (2019) WEB-DLRip

        (скачиваний: 134)
        Рик и Морти / Rick and Morty (2015) WEB-DL [H.264 / 1080p] (Сезон 2, серии 1-10 из 10) Сыендук [EN / RU Sub] скачать через торрент бесплатно

        (скачиваний: 109)
        М.Ю. Демидова | ЕГЭ-2020. Физика. 30 типовых вариантов (2020) [PDF]

        (скачиваний: 80)
        Малышарики (2015-2019) WEB-DL [H.264 / 1080p-LQ] (серии 1-154 из 208) [Обновляемая]

        (скачиваний: 68)
        Рик и Морти / Rick and Morty (2013) BDRip [H.264 / 720p-LQ] (сезон 1, серии 1-11 из 11) Сыендук

        (скачиваний: 65)
        Рик и Морти / Rick and Morty (2013) BDRip [H.264 / 1080p] (Сезон 1, серии 1-11 из 11) Сыендук [EN Sub] скачать через торрент бесплатно

        (скачиваний: 46)
        Фиксики против Кработов (2019) WEB-DL [H.264 / 1080p-LQ]

        (скачиваний: 32)
        Свинка Пеппа / Peppa Pig (2004-2012) SATRip (1-4 сезоны: 208 серий из 209) скачать через торрент бесплатно

        (скачиваний: 28)
        Рик и Морти / Rick and Morty (2017) WEBRip [H.264 / 720p-LQ] (Сезон 3, серии 1 из ) Сыендук

        (скачиваний: 26)
        Жила-была царевна (2015-2019) WEB-DLRip [H.264 / 720p-LQ] (сезон 1, серии 1-18 из 26) [Обновляемая]

        (скачиваний: 21)